<?xml version="1.0" standalone="no"?>
<!DOCTYPE svg PUBLIC "-//W3C//DTD SVG 1.1//EN" "http://www.w3.org/Graphics/SVG/1.1/DTD/svg11.dtd">
<svg xmlns="http://www.w3.org/2000/svg">
<defs >
<font id="SourceSans3" horiz-adv-x="447" ><font-face
    font-family="Source Sans 3 ExtraLight ExtraLight"
    units-per-em="1000"
    panose-1="2 11 3 3 3 4 3 2 2 4"
    ascent="1024"
    descent="-400"
    alphabetic="0" />
<glyph unicode=" " horiz-adv-x="200" />
<glyph unicode="!" horiz-adv-x="248" d="M112 172L108 608V670H140V608L136 172H112ZM124 -12Q111 -12 100 -2T88 26Q88 46 99 56T124 66Q138 66 149 56T160 26Q160 8 149 -2T124 -12Z" />
<glyph unicode="&quot;" horiz-adv-x="336" d="M90 494L84 634V694H122V634L116 494H90ZM218 494L212 634V694H250V634L244 494H218Z" />
<glyph unicode="#" horiz-adv-x="472" d="M94 0L120 218H36V246H124L146 424H56V452H148L174 650H202L176 452H332L358 650H386L360 452H442V424H358L336 246H422V218H332L306 0H278L304 218H148L122 0H94ZM152 246H308L330 424H174L152 246Z" />
<glyph unicode="$" horiz-adv-x="472" d="M244 -12Q186 -12 138 11T62 68L80 86Q107 58 148 37T244 16Q310 16 345 55T380 156Q380 200 359 230T305 282T234 325T164 369T109 424T88 500Q88 544 108 578T164 632T244 652Q298 652 334 632T394 580L374 564Q352
593 321 608T242 624Q188 624 154 589T120 502Q120 462 141 434T195 385T266 343T336 298T391 241T412 158Q412 105 389 67T328 9T244 -12ZM228 -110V-8H258V-110H228ZM228 634V750H258V634H228Z" />
<glyph unicode="%" horiz-adv-x="798" d="M180 258Q137 258 106 282T59 352T42 466Q42 565 79 618T180 672Q245 672 281 619T318 466Q318 399 302 353T254 282T180 258ZM180 284Q230 284 259 332T288 466Q288 552 259 599T180 646Q131 646 102 599T72 466Q72 381
101 333T180 284ZM196 -12L566 672H598L228 -12H196ZM618 -12Q575 -12 544 12T497 82T480 196Q480 295 517 348T618 402Q683 402 719 349T756 196Q756 129 740 83T692 12T618 -12ZM618 14Q668 14 697 62T726 196Q726 282 697 329T618 376Q569 376 540 329T510 196Q510
111 539 63T618 14Z" />
<glyph unicode="&amp;" horiz-adv-x="562" d="M224 -12Q174 -12 132 9T64 71T38 166Q38 211 59 247T114 313T186 370T257 426T312 485T334 554Q334 587 317 615T258 644Q212 644 186 611T160 530Q160 478 182 421T240 306T320 197T410 106Q448 73 483 51T550 16L538
-12Q507 0 470 23T392 82Q344 125 298 179T213 293T153 413T130 528Q130 570 146 602T192 653T260 672Q311 672 337 639T364 556Q364 515 343 482T289 419T217 362T146 305T91 243T70 168Q70 122 91 88T148 35T226 16Q273 16 314 40T388 102Q430 150 459 211T508
342H538Q517 269 486 203T410 84Q373 42 328 15T224 -12Z" />
<glyph unicode="&apos;" horiz-adv-x="208" d="M90 494L84 634V694H122V634L116 494H90Z" />
<glyph unicode="(" horiz-adv-x="270" d="M222 -174Q161 -75 126 35T90 278Q90 410 125 520T222 730L240 718Q180 624 149 511T118 278Q118 158 149 46T240 -162L222 -174Z" />
<glyph unicode=")" horiz-adv-x="270" d="M48 -174L30 -162Q90 -67 121 45T152 278Q152 398 121 511T30 718L48 730Q110 631 145 521T180 278Q180 146 145 36T48 -174Z" />
<glyph unicode="*" horiz-adv-x="386" d="M130 478L108 494L162 580L74 614L82 638L174 612L180 712H206L212 614L304 638L312 614L224 580L278 494L256 478L194 560L130 478Z" />
<glyph unicode="+" horiz-adv-x="472" d="M220 112V316H34V344H220V548H252V344H438V316H252V112H220Z" />
<glyph unicode="," horiz-adv-x="208" d="M60 -150L48 -126Q80 -108 100 -77T120 -2L106 52L140 10Q134 0 126 -3T108 -6Q93 -6 83 3T72 30Q72 48 83 57T108 66Q128 66 140 50T152 4Q152 -47 126 -86T60 -150Z" />
<glyph unicode="-" horiz-adv-x="294" d="M40 234V264H256V234H40Z" />
<glyph unicode="." horiz-adv-x="208" d="M104 -12Q91 -12 80 -2T68 26Q68 46 79 56T104 66Q118 66 129 56T140 26Q140 8 129 -2T104 -12Z" />
<glyph unicode="/" horiz-adv-x="360" d="M8 -160L328 710H358L38 -160H8Z" />
<glyph unicode="0" horiz-adv-x="472" d="M236 -12Q146 -12 98 75T50 322Q50 481 98 566T236 652Q326 652 374 567T422 322Q422 163 374 76T236 -12ZM236 16Q283 16 317 51T371 154T390 322Q390 421 371 488T318 590T236 624Q189 624 155 590T101 489T82 322Q82
223 101 155T154 51T236 16Z" />
<glyph unicode="1" horiz-adv-x="472" d="M86 0V28H238V580H124V602Q162 608 191 618T242 640H268V28H410V0H86Z" />
<glyph unicode="2" horiz-adv-x="472" d="M42 0V18Q150 129 221 210T327 355T362 476Q362 538 328 581T216 624Q171 624 132 600T62 538L40 558Q75 597 118 624T218 652Q274 652 313 630T373 569T394 476Q394 411 357 345T250 201T86 24Q113 26 140 27T194 28H426V0H42Z" />
<glyph unicode="3" horiz-adv-x="472" d="M230 -12Q179 -12 142 2T77 36T30 78L50 100Q79 69 121 43T232 16Q300 16 344 57T388 166Q388 212 365 247T290 302T158 322V352Q234 352 279 372T344 425T364 498Q364 555 327 589T228 624Q183 624 144 603T78 552L58
574Q90 606 131 629T228 652Q275 652 313 634T373 582T396 500Q396 436 361 397T272 340V336Q312 328 345 306T399 249T420 168Q420 113 395 73T327 10T230 -12Z" />
<glyph unicode="4" horiz-adv-x="472" d="M312 0V476Q312 497 313 529T316 582H312Q300 563 287 545T260 506L58 224H440V196H16V212L322 640H342V0H312Z" />
<glyph unicode="5" horiz-adv-x="472" d="M224 -12Q173 -12 136 1T73 34T26 74L46 96Q75 66 116 41T226 16Q270 16 308 39T369 103T392 198Q392 279 348 325T228 372Q191 372 163 360T106 328L80 344L104 640H390V612H132L110 366Q136 382 164 392T230 402Q284
402 328 381T398 315T424 200Q424 132 395 85T320 13T224 -12Z" />
<glyph unicode="6" horiz-adv-x="472" d="M258 -12Q210 -12 172 8T108 66T68 161T54 288Q54 390 73 460T124 572T198 633T286 652Q328 652 359 636T414 592L394 570Q372 597 344 610T284 624Q231 624 186 592T114 487T86 288Q86 210 104 149T160 52T260 16Q299
16 330 39T378 100T396 186Q396 234 381 272T334 333T250 356Q214 356 169 332T82 248V288Q117 332 160 358T252 384Q308 384 347 361T407 294T428 186Q428 129 405 85T343 14T258 -12Z" />
<glyph unicode="7" horiz-adv-x="472" d="M188 0Q192 99 205 181T242 336T303 476T390 612H44V640H430V622Q372 545 333 473T271 328T237 174T222 0H188Z" />
<glyph unicode="8" horiz-adv-x="472" d="M240 -12Q182 -12 137 11T66 74T40 164Q40 208 60 243T110 305T170 348V352Q136 375 107 411T78 498Q78 543 100 578T158 632T240 652Q321 652 365 605T410 486Q410 450 395 418T358 361T318 320V316Q345 299 371 278T413
227T430 154Q430 108 407 71T340 11T240 -12ZM288 330Q332 365 355 404T378 486Q378 523 362 554T315 605T240 624Q183 624 147 588T110 498Q110 450 136 419T204 368T288 330ZM240 16Q288 16 323 34T378 84T398 154Q398 206 369 238T292 292T194 334Q142 304 107
262T72 164Q72 123 93 90T153 36T240 16Z" />
<glyph unicode="9" horiz-adv-x="472" d="M186 -12Q144 -12 113 4T58 48L78 70Q100 43 128 30T188 16Q241 16 286 48T358 153T386 352Q386 430 368 491T312 588T212 624Q173 624 143 601T94 540T76 454Q76 406 91 368T138 307T222 284Q258 284 303 309T390 392V352Q356
309 312 283T220 256Q164 256 125 279T65 346T44 454Q44 511 67 556T129 626T214 652Q262 652 300 632T364 574T404 479T418 352Q418 250 399 180T348 68T274 7T186 -12Z" />
<glyph unicode=":" horiz-adv-x="208" d="M104 378Q91 378 80 388T68 416Q68 436 79 446T104 456Q118 456 129 446T140 416Q140 398 129 388T104 378ZM104 -12Q91 -12 80 -2T68 26Q68 46 79 56T104 66Q118 66 129 56T140 26Q140 8 129 -2T104 -12Z" />
<glyph unicode=";" horiz-adv-x="208" d="M104 378Q91 378 80 388T68 416Q68 436 79 446T104 456Q118 456 129 446T140 416Q140 398 129 388T104 378ZM60 -150L48 -126Q80 -108 100 -77T120 -2L106 52L140 10Q134 0 126 -3T108 -6Q93 -6 83 3T72 30Q72 48 83 57T108
66Q128 66 140 50T152 4Q152 -47 126 -86T60 -150Z" />
<glyph unicode="&lt;" horiz-adv-x="472" d="M438 152L34 314V350L438 512V480L198 386L66 334V330L198 278L438 184V152Z" />
<glyph unicode="=" horiz-adv-x="472" d="M34 416V444H438V416H34ZM34 472V500H438V472H34Z" />
<glyph unicode="&gt;" horiz-adv-x="472" d="M34 152V184L274 278L406 330V334L274 386L34 480V512L438 350V314L34 152Z" />
<glyph unicode="?" horiz-adv-x="394" d="M164 172Q157 223 170 262T205 334T252 397T293 459T310 530Q310 562 298 590T259 636T190 654Q153 654 118 637T56 588L36 606Q65 638 103 660T192 682Q240 682 273 662T324 607T342 532Q342 491 325 457T284 391T236
327T200 257T192 172H164ZM182 -12Q169 -12 158 -2T146 26Q146 46 157 56T182 66Q196 66 207 56T218 26Q218 8 207 -2T182 -12Z" />
<glyph unicode="@" horiz-adv-x="802" d="M382 -142Q310 -142 250 -119T145 -51T77 57T52 202Q52 299 83 377T169 512T294 598T442 628Q537 628 606 589T712 480T750 316Q750 253 734 205T691 124T634 75T572 58Q533 58 507 76T478 134H476Q449 106 419 85T354
64Q309 64 276 97T242 198Q242 233 254 272T289 344T347 399T426 420Q453 420 474 408T510 372H512L520 412H546L512 228Q494 156 510 121T574 86Q606 86 640 112T697 190T720 314Q720 380 701 433T644 523T556 580T440 600Q371 600 307 572T192 492T112 367T82
204Q82 131 103 73T165 -27T260 -91T384 -114Q435 -114 476 -100T554 -64L568 -88Q526 -115 480 -128T382 -142ZM356 92Q382 92 410 109T470 162L502 340Q483 370 466 381T424 392Q377 392 343 363T291 289T272 200Q272 140 297 116T356 92Z" />
<glyph unicode="A" horiz-adv-x="520" d="M10 0L246 660H274L510 0H476L338 396Q317 456 299 510T262 626H258Q240 565 222 511T182 396L42 0H10ZM112 236V264H405V236H112Z" />
<glyph unicode="B" horiz-adv-x="574" d="M100 0V660H272Q338 660 386 643T460 590T486 500Q486 448 460 410T382 356V352Q448 342 488 302T528 192Q528 129 499 86T414 22T284 0H100ZM132 366H252Q360 366 407 401T454 498Q454 572 404 602T258 632H132V366ZM132
28H272Q376 28 436 67T496 190Q496 265 438 301T272 338H132V28Z" />
<glyph unicode="C" horiz-adv-x="562" d="M328 -12Q247 -12 186 30T90 150T56 332Q56 410 75 472T132 580T220 648T334 672Q390 672 433 649T502 594L482 574Q455 606 417 624T334 642Q258 642 204 604T120 497T90 332Q90 237 119 167T202 57T330 18Q383 18 424
37T503 99L522 82Q485 39 440 14T328 -12Z" />
<glyph unicode="D" horiz-adv-x="600" d="M100 0V660H248Q350 660 415 619T512 504T544 332Q544 234 513 159T416 42T248 0H100ZM132 28H244Q338 28 396 68T482 176T510 332Q510 419 483 487T397 593T244 632H132V28Z" />
<glyph unicode="E" horiz-adv-x="510" d="M100 0V660H454V632H132V366H402V338H132V28H464V0H100Z" />
<glyph unicode="F" horiz-adv-x="470" d="M100 0V660H452V632H132V354H402V326H132V0H100Z" />
<glyph unicode="G" horiz-adv-x="600" d="M334 -12Q250 -12 188 30T91 150T56 332Q56 410 76 472T135 580T226 648T344 672Q410 672 452 647T520 594L500 572Q475 601 438 621T344 642Q265 642 208 604T121 497T90 332Q90 237 119 167T204 57T336 18Q384 18 426
32T494 72V290H330V318H526V62Q496 29 448 9T334 -12Z" />
<glyph unicode="H" horiz-adv-x="634" d="M100 0V660H132V366H502V660H534V0H502V338H132V0H100Z" />
<glyph unicode="I" horiz-adv-x="232" d="M100 0V660H132V0H100Z" />
<glyph unicode="J" horiz-adv-x="456" d="M200 -12Q148 -12 108 12T44 82L70 98Q96 55 127 37T202 18Q265 18 295 57T326 178V660H358V174Q358 122 343 80T293 13T200 -12Z" />
<glyph unicode="K" horiz-adv-x="550" d="M100 0V660H132V280H134L470 660H510L298 418L538 0H500L274 394L132 234V0H100Z" />
<glyph unicode="L" horiz-adv-x="460" d="M100 0V660H132V28H442V0H100Z" />
<glyph unicode="M" horiz-adv-x="698" d="M100 0V660H152L294 260Q308 223 321 186T348 110H352Q366 148 378 185T404 260L546 660H598V0H566V460Q566 486 566 515T568 575T570 632H566L515 486L366 74H332L182 486L130 632H126Q127 605 128 575T129 516T130 460V0H100Z" />
<glyph unicode="N" horiz-adv-x="632" d="M100 0V660H134L426 176Q446 143 465 111T502 46H506Q505 94 504 140T502 232V660H532V0H498L206 484Q187 517 168 550T130 614H126Q128 568 129 525T130 434V0H100Z" />
<glyph unicode="O" horiz-adv-x="648" d="M324 -12Q246 -12 186 30T91 150T56 332Q56 436 90 512T185 630T324 672Q402 672 462 631T557 513T592 332Q592 228 558 151T463 31T324 -12ZM324 18Q394 18 446 57T528 166T558 332Q558 427 529 496T447 604T324 642Q254
642 202 604T120 497T90 332Q90 237 119 167T201 57T324 18Z" />
<glyph unicode="P" horiz-adv-x="542" d="M100 0V660H258Q333 660 385 643T466 586T494 480Q494 417 467 376T388 313T262 292H132V0H100ZM132 320H250Q357 320 408 357T460 480Q460 567 407 599T246 632H132V320Z" />
<glyph unicode="Q" horiz-adv-x="648" d="M324 -12Q246 -12 186 30T91 150T56 332Q56 436 90 512T185 630T324 672Q402 672 462 631T557 513T592 332Q592 228 558 151T463 31T324 -12ZM324 16Q394 16 446 55T528 166T558 332Q558 427 529 496T447 604T324 642Q254
642 202 604T120 497T90 332Q90 237 119 166T201 56T324 16ZM514 -152Q430 -152 376 -108T300 0H336Q350 -38 375 -65T435 -106T516 -120Q539 -120 554 -118T582 -112L590 -140Q578 -144 558 -148T514 -152Z" />
<glyph unicode="R" horiz-adv-x="534" d="M100 0V660H282Q347 660 394 643T468 589T494 490Q494 432 468 393T395 333T282 312H132V0H100ZM132 340H270Q362 340 411 377T460 490Q460 568 411 600T270 632H132V340ZM466 0L274 322L310 324L504 0H466Z" />
<glyph unicode="S" horiz-adv-x="516" d="M268 -12Q195 -12 141 16T48 88L70 108Q105 67 156 43T268 18Q348 18 395 57T442 160Q442 204 425 230T381 274T320 306L218 352Q189 365 158 384T106 435T84 514Q84 561 108 596T174 652T270 672Q330 672 376 649T450
594L432 574Q402 604 362 623T270 642Q201 642 159 608T116 516Q116 475 135 450T181 409T232 382L334 336Q372 319 404 298T455 245T474 162Q474 112 449 73T378 11T268 -12Z" />
<glyph unicode="T" horiz-adv-x="520" d="M244 0V632H30V660H490V632H276V0H244Z" />
<glyph unicode="U" horiz-adv-x="630" d="M314 -12Q274 -12 236 0T166 40T117 119T98 246V660H130V254Q130 163 156 112T224 39T314 18Q363 18 406 39T475 111T502 254V660H532V246Q532 170 513 120T463 41T393 0T314 -12Z" />
<glyph unicode="V" horiz-adv-x="482" d="M222 0L6 660H40L164 264Q177 222 188 187T211 118T236 42H240Q253 83 264 117T286 187T312 264L444 660H476L254 0H222Z" />
<glyph unicode="W" horiz-adv-x="764" d="M182 0L30 660H64L150 260Q162 206 174 152T198 44H202Q214 98 227 152T254 260L364 660H400L506 260Q520 206 533 152T560 44H564Q576 98 587 152T610 260L700 660H732L578 0H546L420 474Q411 513 402 548T384 622H380Q371
583 361 548T342 474L214 0H182Z" />
<glyph unicode="X" horiz-adv-x="470" d="M18 0L218 342L32 660H66L182 456Q196 434 208 415T236 368H240Q255 395 266 414T290 456L406 660H438L252 340L452 0H418L296 212Q283 236 268 261T234 316H230Q214 286 200 261T172 212L50 0H18Z" />
<glyph unicode="Y" horiz-adv-x="436" d="M202 0V272L4 660H38L144 446Q162 410 179 375T216 304H220Q240 340 259 375T294 446L400 660H432L234 272V0H202Z" />
<glyph unicode="Z" horiz-adv-x="538" d="M52 0V18L444 632H86V660H484V642L92 28H488V0H52Z" />
<glyph unicode="[" horiz-adv-x="270" d="M100 -152V708H252V686H124V-130H252V-152H100Z" />
<glyph unicode="\" horiz-adv-x="360" d="M322 -160L2 710H32L352 -160H322Z" />
<glyph unicode="]" horiz-adv-x="270" d="M18 -152V-130H146V686H18V708H170V-152H18Z" />
<glyph unicode="^" horiz-adv-x="472" d="M68 292L218 670H254L404 292H372L290 506L238 638H234L182 506L100 292H68Z" />
<glyph unicode="_" horiz-adv-x="500" d="M12 -114V-82H488V-114H12Z" />
<glyph unicode="`" horiz-adv-x="532" d="M306 570L156 716L158 720H196L336 570H306Z" />
<glyph unicode="a" horiz-adv-x="486" d="M198 -12Q161 -12 130 1T79 43T60 117Q60 197 136 238T374 298Q375 337 367 375T332 437T256 462Q205 462 164 443T100 406L84 428Q99 440 125 454T185 479T258 490Q314 490 346 465T391 399T404 310V0H378L374 64H372Q335
34 291 11T198 -12ZM200 16Q244 16 285 37T374 98V272Q269 260 208 240T119 189T92 118Q92 63 124 40T200 16Z" />
<glyph unicode="b" horiz-adv-x="538" d="M274 -12Q240 -12 202 4T128 48H126L122 0H96V722H126V508L124 412Q162 444 205 467T294 490Q359 490 401 460T465 375T486 246Q486 165 457 108T379 19T274 -12ZM276 16Q328 16 368 45T431 127T454 246Q454 307 438 356T387
433T292 462Q255 462 213 441T126 378V82Q168 46 208 31T276 16Z" />
<glyph unicode="c" horiz-adv-x="446" d="M268 -12Q207 -12 159 17T82 103T54 238Q54 318 84 374T162 460T268 490Q318 490 351 473T408 430L390 412Q368 435 338 448T268 462Q217 462 176 434T111 355T86 238Q86 172 108 122T172 44T268 16Q309 16 343 31T402
72L420 54Q390 24 353 6T268 -12Z" />
<glyph unicode="d" horiz-adv-x="540" d="M252 -12Q162 -12 108 52T54 238Q54 315 83 371T161 459T268 490Q312 490 345 475T416 430L414 520V722H444V0H418L414 64H412Q382 34 342 11T252 -12ZM254 16Q296 16 335 38T414 100V396Q374 432 339 447T266 462Q215
462 175 432T110 351T86 238Q86 139 129 78T254 16Z" />
<glyph unicode="e" horiz-adv-x="478" d="M272 -12Q212 -12 163 18T84 104T54 238Q54 316 83 372T160 459T260 490Q315 490 355 465T418 390T440 270Q440 263 440 255T438 238H70V266H410Q410 365 369 413T260 462Q218 462 178 438T112 364T86 240Q86 172 110
122T178 44T274 16Q315 16 348 27T406 56L420 34Q393 16 360 2T272 -12Z" />
<glyph unicode="f" horiz-adv-x="252" d="M100 0V596Q100 643 113 673T151 719T210 734Q225 734 243 730T276 718L266 694Q235 706 208 706Q168 706 149 676T130 592V0H100ZM30 450V474L100 478H244V450H30Z" />
<glyph unicode="g" horiz-adv-x="480" d="M250 -234Q189 -234 145 -217T78 -170T54 -100Q54 -68 73 -37T126 18V22Q108 33 96 52T84 98Q84 131 102 153T136 186V190Q114 210 95 244T76 322Q76 370 98 408T157 468T240 490Q260 490 276 487T302 478H462V450H346V446Q370
428 387 397T404 322Q404 274 382 236T323 175T240 152Q219 152 197 158T158 174Q142 161 129 144T116 100Q116 73 135 54T210 34H316Q396 34 433 8T470 -74Q470 -114 443 -150T367 -210T250 -234ZM240 180Q275 180 305 198T353 248T372 322Q372 387 333 424T240
462Q186 462 147 425T108 322Q108 280 126 248T175 198T240 180ZM252 -206Q309 -206 350 -187T415 -138T438 -76Q438 -34 409 -16T322 2H212Q208 2 191 4T154 10Q118 -14 102 -42T86 -98Q86 -146 129 -176T252 -206Z" />
<glyph unicode="h" horiz-adv-x="522" d="M96 0V722H126V508V400Q165 439 205 464T294 490Q368 490 403 446T438 308V0H408V304Q408 384 381 423T292 462Q247 462 210 438T126 366V0H96Z" />
<glyph unicode="i" horiz-adv-x="222" d="M96 0V478H126V0H96ZM110 600Q97 600 88 610T78 636Q78 651 87 660T110 670Q124 670 133 661T142 636Q142 620 133 610T110 600Z" />
<glyph unicode="j" horiz-adv-x="222" d="M28 -234Q15 -234 -2 -230T-30 -220L-22 -196Q-13 -199 2 -202T30 -206Q72 -206 84 -175T96 -98V478H126V-102Q126 -148 115 -177T83 -220T28 -234ZM110 600Q97 600 88 610T78 636Q78 651 87 660T110 670Q124 670 133
661T142 636Q142 620 133 610T110 600Z" />
<glyph unicode="k" horiz-adv-x="452" d="M96 0V722H126V174H128L376 478H412L258 290L440 0H406L240 266L126 132V0H96Z" />
<glyph unicode="l" horiz-adv-x="230" d="M144 -8Q129 -8 118 -2T102 19T96 56V722H126V50Q126 34 132 27T148 20Q151 20 154 20T164 22L170 -2Q164 -5 158 -6T144 -8Z" />
<glyph unicode="m" horiz-adv-x="806" d="M96 0V478H122L126 402H128Q161 440 201 465T280 490Q339 490 369 463T412 390Q454 437 495 463T576 490Q647 490 682 446T718 308V0H688V304Q688 384 661 423T574 462Q538 462 501 438T422 366V0H392V304Q392 384 365
423T278 462Q210 462 126 366V0H96Z" />
<glyph unicode="n" horiz-adv-x="526" d="M96 0V478H122L126 402H128Q166 440 205 465T294 490Q368 490 403 446T438 308V0H408V304Q408 384 381 423T292 462Q247 462 210 438T126 366V0H96Z" />
<glyph unicode="o" horiz-adv-x="532" d="M266 -12Q209 -12 161 17T83 103T54 238Q54 318 83 374T160 460T266 490Q323 490 371 461T448 375T478 238Q478 159 449 103T371 18T266 -12ZM266 16Q317 16 358 44T422 122T446 238Q446 304 423 354T358 433T266 462Q215
462 175 434T110 355T86 238Q86 172 110 122T174 44T266 16Z" />
<glyph unicode="p" horiz-adv-x="540" d="M96 -222V478H122L126 416H128Q164 445 206 467T294 490Q359 490 401 460T465 375T486 246Q486 165 457 108T379 19T274 -12Q240 -12 203 4T126 48V-42V-222H96ZM276 16Q328 16 368 45T431 127T454 246Q454 307 438 356T387
433T292 462Q255 462 214 441T126 378V82Q170 46 209 31T276 16Z" />
<glyph unicode="q" horiz-adv-x="540" d="M414 -222V-32L416 66Q383 35 343 12T252 -12Q162 -12 108 52T54 238Q54 315 83 371T161 459T268 490Q312 490 345 475T412 434H414L418 478H444V-222H414ZM254 16Q296 16 335 38T414 100V396Q374 432 339 447T266 462Q215
462 175 432T110 351T86 238Q86 139 129 78T254 16Z" />
<glyph unicode="r" horiz-adv-x="306" d="M96 0V478H122L126 388H128Q151 432 185 461T264 490Q276 490 287 488T310 480L300 454Q291 457 283 458T260 460Q227 460 191 432T126 332V0H96Z" />
<glyph unicode="s" horiz-adv-x="400" d="M208 -12Q151 -12 108 6T34 54L52 74Q82 49 117 33T210 16Q270 16 301 47T332 118Q332 150 314 171T268 206T212 230Q175 243 140 259T83 300T60 366Q60 416 98 453T210 490Q249 490 283 477T342 442L324 422Q300 439
273 450T208 462Q148 462 120 433T92 368Q92 339 108 321T149 290T204 266Q242 251 279 236T340 194T364 120Q364 85 346 55T293 7T208 -12Z" />
<glyph unicode="t" horiz-adv-x="302" d="M218 -8Q152 -8 129 30T106 130V450H30V474L106 478L110 638H136V478H278V450H136V126Q136 80 152 50T220 20Q234 20 249 23T282 36L294 14Q275 4 255 -2T218 -8Z" />
<glyph unicode="u" horiz-adv-x="524" d="M232 -12Q159 -12 124 32T88 170V478H118V174Q118 95 145 56T234 16Q279 16 316 41T398 120V478H428V0H402L398 82H396Q360 40 321 14T232 -12Z" />
<glyph unicode="v" horiz-adv-x="422" d="M194 0L12 478H46L160 168Q172 134 185 99T210 32H214Q226 64 239 99T264 168L378 478H410L230 0H194Z" />
<glyph unicode="w" horiz-adv-x="672" d="M168 0L24 478H58L150 156Q159 123 168 93T184 30H188Q197 62 206 92T224 156L316 478H358L450 156Q459 123 468 93T486 30H490Q499 62 508 92T526 156L616 478H648L508 0H466L376 312Q366 347 358 380T338 448H334Q325
414 316 380T294 310L206 0H168Z" />
<glyph unicode="x" horiz-adv-x="392" d="M14 0L178 250L28 478H62L144 350Q156 331 169 312T196 272H200Q214 292 226 311T252 350L332 478H364L214 248L378 0H344L254 138Q241 161 226 183T196 226H192Q177 205 163 183T134 138L46 0H14Z" />
<glyph unicode="y" horiz-adv-x="424" d="M66 -222Q54 -222 42 -219T20 -212L30 -184Q38 -187 48 -189T68 -192Q113 -192 145 -153T196 -56L210 -12L12 478H46L168 164Q180 134 194 98T222 30H226Q238 62 250 98T272 164L380 478H412L220 -68Q208 -105 188 -140T137
-199T66 -222Z" />
<glyph unicode="z" horiz-adv-x="396" d="M26 0V16L320 450H58V478H360V462L66 28H370V0H26Z" />
<glyph unicode="{" horiz-adv-x="270" d="M222 -152Q168 -152 141 -127T114 -26Q114 11 116 46T120 115T122 184Q122 216 106 241T36 266V290Q71 290 89 301T115 331T122 370Q122 406 120 440T116 510T114 582Q114 657 141 682T222 708H252V686H220Q172 686 156
659T140 578Q140 529 143 484T146 382Q146 340 137 315T98 280V276Q127 267 136 241T146 174Q146 119 143 74T140 -22Q140 -76 156 -103T220 -130H252V-152H222Z" />
<glyph unicode="|" horiz-adv-x="220" d="M96 -250V750H124V-250H96Z" />
<glyph unicode="}" horiz-adv-x="270" d="M18 -152V-130H50Q98 -130 114 -103T130 -22Q130 28 127 73T124 174Q124 215 134 241T172 276V280Q144 289 134 314T124 382Q124 438 127 483T130 578Q130 632 114 659T50 686H18V708H48Q102 708 129 683T156 582Q156
545 154 510T150 441T148 370Q148 350 155 332T180 302T234 290V266Q182 266 165 241T148 184Q148 149 150 115T154 46T156 -26Q156 -101 129 -126T48 -152H18Z" />
<glyph unicode="~" horiz-adv-x="472" d="M326 270Q298 270 274 284T229 316T187 348T144 362Q122 362 102 348T64 298L42 310Q62 351 90 370T146 390Q175 390 198 376T243 344T285 312T328 298Q351 298 370 312T408 362L430 348Q411 309 383 290T326 270Z" />
<glyph unicode="&#xa0;" horiz-adv-x="200" />
<glyph unicode="&#xa1;" horiz-adv-x="248" d="M108 -192V-130L112 306H136L140 -130V-192H108ZM124 412Q111 412 100 422T88 452Q88 470 99 480T124 490Q138 490 149 480T160 452Q160 433 149 423T124 412Z" />
<glyph unicode="&#xa2;" horiz-adv-x="472" d="M276 84Q215 84 167 110T90 188T62 312Q62 386 92 437T170 514T276 540Q326 540 359 522T416 480L398 460Q374 483 344 497T276 512Q225 512 184 487T118 417T94 312Q94 222 144 167T276 112Q317 112 351 128T410
168L428 148Q398 121 361 103T276 84ZM252 -26V652H280V-26H252Z" />
<glyph unicode="&#xa3;" horiz-adv-x="472" d="M58 0V18Q115 51 139 105T164 218Q164 265 151 309T125 396T112 486Q112 537 132 574T188 632T276 652Q326 652 360 632T416 580L396 564Q375 593 346 608T274 624Q210 624 177 584T144 488Q144 443 156 402T181
316T194 218Q194 152 174 110T118 32V28H418V0H58ZM54 296V322L120 324H346V296H54Z" />
<glyph unicode="&#xa4;" horiz-adv-x="472" d="M52 118L32 140L98 208Q80 232 70 262T60 328Q60 365 70 396T98 451L32 520L52 542L118 473Q167 520 236 520Q304 520 354 473L420 542L440 520L373 451Q391 427 401 396T412 328Q412 293 402 263T374 208L440 140L420
118L354 186Q331 163 300 151T236 138Q167 138 117 186L52 118ZM236 166Q275 166 308 186T360 243T380 328Q380 376 361 413T308 471T236 492Q197 492 165 471T112 413T92 328Q92 280 112 244T164 187T236 166Z" />
<glyph unicode="&#xa5;" horiz-adv-x="472" d="M220 0V162H52V190H220V270H52V298H208L32 640H66L166 438Q183 405 199 372T234 300H238Q258 338 275 371T308 438L408 640H440L262 298H420V270H250V190H420V162H250V0H220Z" />
<glyph unicode="&#xa6;" horiz-adv-x="220" d="M96 274V750H124V274H96ZM96 -250V222H124V-250H96Z" />
<glyph unicode="&#xa7;" horiz-adv-x="472" d="M232 -48Q181 -48 143 -31T76 12L98 34Q124 10 154 -5T232 -20Q280 -20 309 7T338 70Q338 106 318 129T265 168T195 199T126 233T73 281T52 356Q52 410 83 441T156 494L168 470Q131 449 107 425T82 358Q82 319 102
294T155 251T225 219T294 186T347 141T368 72Q368 37 349 10T298 -32T232 -48ZM308 144L294 170Q339 190 364 212T390 282Q390 323 370 349T317 392T249 425T181 457T129 501T108 568Q108 594 122 620T164 663T238 680Q277 680 311 666T372 628L354 606Q330 626
304 639T238 652Q184 652 161 626T138 570Q138 535 158 513T211 476T279 445T347 410T399 361T420 284Q420 245 405 220T365 177T308 144Z" />
<glyph unicode="&#xa8;" horiz-adv-x="532" d="M180 602Q167 602 158 611T148 634Q148 648 157 657T180 666Q194 666 203 657T212 634Q212 621 203 612T180 602ZM352 602Q339 602 330 611T320 634Q320 648 329 657T352 666Q366 666 375 657T384 634Q384 621 375
612T352 602Z" />
<glyph unicode="&#xa9;" horiz-adv-x="740" d="M370 -12Q306 -12 249 11T147 79T77 184T52 322Q52 397 77 458T146 562T248 628T370 652Q435 652 492 629T593 562T663 458T688 322Q688 246 663 185T594 79T492 12T370 -12ZM370 14Q428 14 480 36T572 99T635 196T658
322Q658 390 635 446T572 542T480 604T370 626Q312 626 260 605T168 543T105 446T82 322Q82 253 105 197T168 99T260 36T370 14ZM374 130Q327 130 288 152T226 216T202 318Q202 379 227 423T292 490T380 514Q419 514 449 498T500 456L480 438Q461 461 436 472T378
484Q338 484 306 464T255 406T236 318Q236 245 274 203T376 160Q418 160 443 173T492 210L510 192Q485 164 455 147T374 130Z" />
<glyph unicode="&#xaa;" horiz-adv-x="334" d="M140 402Q98 402 71 425T44 492Q44 545 94 572T252 610Q252 651 238 679T180 708Q149 708 118 695T70 670L58 692Q76 704 109 719T182 734Q239 734 259 700T280 612V410H258L252 450H248Q227 432 200 417T140 402ZM146
428Q170 428 197 440T252 480V588Q153 578 114 554T74 494Q74 460 93 444T146 428Z" />
<glyph unicode="&#xab;" horiz-adv-x="388" d="M180 74L42 238V266L180 430L200 412L76 252L200 90L180 74ZM314 74L176 238V266L314 430L334 412L210 252L334 90L314 74Z" />
<glyph unicode="&#xac;" horiz-adv-x="472" d="M406 112V316H34V344H438V112H406Z" />
<glyph unicode="&#xad;" horiz-adv-x="294" d="M40 234V264H256V234H40Z" />
<glyph unicode="&#xae;" horiz-adv-x="392" d="M196 326Q147 326 106 350T41 417T16 518Q16 576 40 619T106 687T196 712Q245 712 286 688T351 620T376 518Q376 460 352 417T286 350T196 326ZM196 352Q238 352 272 373T327 432T348 518Q348 566 328 604T273 664T196
686Q154 686 120 664T65 604T44 518Q44 470 64 433T119 374T196 352ZM130 418V626H196Q225 626 248 613T272 562Q272 543 261 527T232 506L282 418H248L208 496H158V418H130ZM158 522H188Q212 522 227 530T242 560Q242 578 232 589T192 600H158V522Z" />
<glyph unicode="&#xaf;" horiz-adv-x="532" d="M146 608V636H386V608H146Z" />
<glyph unicode="&#xb0;" horiz-adv-x="304" d="M152 454Q124 454 99 467T58 506T42 568Q42 605 58 631T99 670T152 684Q180 684 205 671T246 631T262 568Q262 532 246 507T205 468T152 454ZM152 480Q188 480 211 505T234 568Q234 607 211 632T152 658Q116 658
93 633T70 568Q70 531 93 506T152 480Z" />
<glyph unicode="&#xb1;" horiz-adv-x="472" d="M220 112V316H34V344H220V548H252V344H438V316H252V112H220ZM34 0V28H438V0H34Z" />
<glyph unicode="&#xb2;" horiz-adv-x="360" d="M58 410V430Q127 495 170 540T234 619T254 688Q254 733 230 759T164 786Q136 786 112 767T70 722L50 740Q67 769 98 790T166 812Q219 812 251 782T284 690Q284 648 262 610T199 530T106 436H308V410H58Z" />
<glyph unicode="&#xb3;" horiz-adv-x="360" d="M176 398Q131 398 97 421T42 472L66 490Q84 462 114 443T178 424Q217 424 245 447T274 512Q274 553 235 574T130 596V620Q192 620 225 647T258 708Q258 743 235 764T170 786Q146 786 122 771T78 732L58 750Q78 776
107 794T172 812Q204 812 230 800T272 765T288 710Q288 673 266 648T210 610Q246 604 275 579T304 512Q304 476 287 451T241 412T176 398Z" />
<glyph unicode="&#xb4;" horiz-adv-x="532" d="M196 570L336 720H374L376 716L226 570H196Z" />
<glyph unicode="&#xb5;" horiz-adv-x="536" d="M96 -180V478H126V174Q126 101 152 59T238 16Q264 16 290 23T344 56T402 134V478H432Q431 406 431 336T430 197T430 56Q430 38 438 29T458 20Q466 20 471 21T486 26L492 0Q485 -3 476 -5T456 -8Q423 -8 412 15T402
92H400Q367 38 327 13T242 -12Q203 -12 173 1T122 54Q122 -3 122 -39T123 -107T126 -180H96Z" />
<glyph unicode="&#xb6;" horiz-adv-x="498" d="M370 -80V660H402V-80H370ZM290 250Q216 250 160 270T73 335T42 454Q42 528 71 573T152 639T272 660H316V250H290Z" />
<glyph unicode="&#xb7;" horiz-adv-x="208" d="M104 284Q91 284 80 294T68 322Q68 342 79 352T104 362Q118 362 129 352T140 322Q140 304 129 294T104 284Z" />
<glyph unicode="&#xb8;" horiz-adv-x="532" d="M202 -216L196 -190Q262 -185 286 -172T310 -136Q310 -113 292 -102T232 -84L272 2H300L270 -66Q302 -73 321 -88T340 -134Q340 -171 305 -191T202 -216Z" />
<glyph unicode="&#xb9;" horiz-adv-x="360" d="M178 410V740H96V762Q123 768 143 777T180 800H206V410H178Z" />
<glyph unicode="&#xba;" horiz-adv-x="358" d="M178 402Q138 402 106 422T54 479T34 568Q34 621 53 658T105 714T178 734Q218 734 250 715T302 658T322 568Q322 516 303 479T251 422T178 402ZM178 428Q229 428 260 467T292 568Q292 631 261 669T178 708Q127 708
96 670T64 568Q64 507 95 468T178 428Z" />
<glyph unicode="&#xbb;" horiz-adv-x="388" d="M74 74L54 90L178 252L54 412L74 430L212 266V238L74 74ZM208 74L188 90L312 252L188 412L208 430L346 266V238L208 74Z" />
<glyph unicode="&#xbc;" horiz-adv-x="758" d="M158 270V600H76V622Q103 628 123 637T160 660H186V270H158ZM176 -12L546 672H578L208 -12H176ZM622 0V238L626 340H622L564 256L486 144H708V118H446V134L628 390H650V0H622Z" />
<glyph unicode="&#xbd;" horiz-adv-x="778" d="M158 270V600H76V622Q103 628 123 637T160 660H186V270H158ZM152 -12L522 672H554L184 -12H152ZM476 0V20Q545 85 588 130T652 209T672 278Q672 323 648 349T582 376Q554 376 530 357T488 312L468 330Q485 359 516
380T584 402Q637 402 669 372T702 280Q702 238 680 200T617 120T524 26H726V0H476Z" />
<glyph unicode="&#xbe;" horiz-adv-x="778" d="M176 258Q131 258 97 281T42 332L66 350Q84 322 114 303T178 284Q217 284 245 307T274 372Q274 413 235 434T130 456V480Q192 480 225 507T258 568Q258 603 235 624T170 646Q146 646 122 631T78 592L58 610Q78 636
107 654T172 672Q204 672 230 660T272 625T288 570Q288 533 266 508T210 470Q246 464 275 439T304 372Q304 336 287 311T241 272T176 258ZM226 -12L596 672H628L258 -12H226ZM642 0V238L646 340H642L584 256L506 144H728V118H466V134L648 390H670V0H642Z" />
<glyph unicode="&#xbf;" horiz-adv-x="394" d="M202 -204Q154 -204 121 -184T70 -129T52 -54Q52 -13 69 21T110 87T158 151T194 221T202 306H230Q237 255 224 216T189 144T142 81T101 19T84 -52Q84 -84 96 -112T135 -158T204 -176Q242 -176 277 -159T338 -110L358
-128Q330 -159 292 -181T202 -204ZM212 412Q199 412 188 422T176 452Q176 470 187 480T212 490Q226 490 237 480T248 452Q248 433 237 423T212 412Z" />
<glyph unicode="&#xc0;" horiz-adv-x="520" d="M10 0L246 660H274L510 0H476L338 396Q317 456 299 510T262 626H258Q240 565 222 511T182 396L42 0H10ZM112 236V264H405V236H112ZM294 710L140 826L142 830H190L330 710H294Z" />
<glyph unicode="&#xc1;" horiz-adv-x="520" d="M10 0L246 660H274L510 0H476L338 396Q317 456 299 510T262 626H258Q240 565 222 511T182 396L42 0H10ZM112 236V264H405V236H112ZM190 710L330 830H378L380 826L226 710H190Z" />
<glyph unicode="&#xc2;" horiz-adv-x="520" d="M10 0L246 660H274L510 0H476L338 396Q317 456 299 510T262 626H258Q240 565 222 511T182 396L42 0H10ZM112 236V264H405V236H112ZM110 710L250 830H270L410 710H376L262 800H258L144 710H110Z" />
<glyph unicode="&#xc3;" horiz-adv-x="520" d="M10 0L246 660H274L510 0H476L338 396Q317 456 299 510T262 626H258Q240 565 222 511T182 396L42 0H10ZM112 236V264H405V236H112ZM338 722Q309 722 289 734T253 763T221 791T182 804Q159 804 143 782T124 724L100
726Q102 769 122 800T182 832Q211 832 231 820T268 791T300 763T338 750Q361 750 376 772T396 830L420 828Q419 785 398 754T338 722Z" />
<glyph unicode="&#xc4;" horiz-adv-x="520" d="M10 0L246 660H274L510 0H476L338 396Q317 456 299 510T262 626H258Q240 565 222 511T182 396L42 0H10ZM112 236V264H405V236H112ZM164 728Q151 728 142 736T132 760Q132 775 141 783T164 792Q178 792 187 784T196
760Q196 745 187 737T164 728ZM356 728Q343 728 334 736T324 760Q324 775 333 783T356 792Q370 792 379 784T388 760Q388 745 379 737T356 728Z" />
<glyph unicode="&#xc5;" horiz-adv-x="520" d="M10 0L246 660H274L510 0H476L338 396Q317 456 299 510T262 626H258Q240 565 222 511T182 396L42 0H10ZM112 236V264H405V236H112ZM260 700Q220 700 193 722T166 784Q166 823 193 845T260 868Q301 868 327 846T354
784Q354 745 328 723T260 700ZM260 722Q289 722 308 737T328 784Q328 816 309 831T260 846Q232 846 212 831T192 784Q192 753 212 738T260 722Z" />
<glyph unicode="&#xc6;" horiz-adv-x="804" d="M26 0L398 660H748V632H446V366H696V338H446V28H758V0H414V630H410Q379 573 346 514T280 392L60 0H26ZM174 226V254H442V226H174Z" />
<glyph unicode="&#xc7;" horiz-adv-x="562" d="M328 -12Q247 -12 186 30T90 150T56 332Q56 410 75 472T132 580T220 648T334 672Q390 672 433 649T502 594L482 574Q455 606 417 624T334 642Q258 642 204 604T120 497T90 332Q90 237 119 167T202 57T330 18Q383
18 424 37T503 99L522 82Q485 39 440 14T328 -12ZM266 -216L260 -190Q326 -185 350 -172T374 -136Q374 -113 356 -102T296 -84L336 2H364L334 -66Q366 -73 385 -88T404 -134Q404 -171 369 -191T266 -216Z" />
<glyph unicode="&#xc8;" horiz-adv-x="510" d="M100 0V660H454V632H132V366H402V338H132V28H464V0H100ZM324 710L170 826L172 830H220L360 710H324Z" />
<glyph unicode="&#xc9;" horiz-adv-x="510" d="M100 0V660H454V632H132V366H402V338H132V28H464V0H100ZM220 710L360 830H408L410 826L256 710H220Z" />
<glyph unicode="&#xca;" horiz-adv-x="510" d="M100 0V660H454V632H132V366H402V338H132V28H464V0H100ZM140 710L280 830H300L440 710H406L292 800H288L174 710H140Z" />
<glyph unicode="&#xcb;" horiz-adv-x="510" d="M100 0V660H454V632H132V366H402V338H132V28H464V0H100ZM194 728Q181 728 172 736T162 760Q162 775 171 783T194 792Q208 792 217 784T226 760Q226 745 217 737T194 728ZM386 728Q373 728 364 736T354 760Q354 775
363 783T386 792Q400 792 409 784T418 760Q418 745 409 737T386 728Z" />
<glyph unicode="&#xcc;" horiz-adv-x="232" d="M100 0V660H132V0H100ZM150 710L-4 826L-2 830H46L186 710H150Z" />
<glyph unicode="&#xcd;" horiz-adv-x="232" d="M100 0V660H132V0H100ZM46 710L186 830H234L236 826L82 710H46Z" />
<glyph unicode="&#xce;" horiz-adv-x="232" d="M100 0V660H132V0H100ZM-34 710L106 830H126L266 710H232L118 800H114L0 710H-34Z" />
<glyph unicode="&#xcf;" horiz-adv-x="232" d="M100 0V660H132V0H100ZM20 728Q7 728 -2 736T-12 760Q-12 775 -3 783T20 792Q34 792 43 784T52 760Q52 745 43 737T20 728ZM212 728Q199 728 190 736T180 760Q180 775 189 783T212 792Q226 792 235 784T244 760Q244
745 235 737T212 728Z" />
<glyph unicode="&#xd0;" horiz-adv-x="620" d="M22 338V362L122 366H320V338H22ZM120 0V660H268Q370 660 435 619T532 504T564 332Q564 234 533 159T436 42T268 0H120ZM152 28H264Q358 28 416 68T502 176T530 332Q530 419 503 487T417 593T264 632H152V28Z" />
<glyph unicode="&#xd1;" horiz-adv-x="632" d="M100 0V660H134L426 176Q446 143 465 111T502 46H506Q505 94 504 140T502 232V660H532V0H498L206 484Q187 517 168 550T130 614H126Q128 568 129 525T130 434V0H100ZM408 722Q379 722 359 734T323 763T291 791T252
804Q229 804 213 782T194 724L170 726Q172 769 192 800T252 832Q281 832 301 820T338 791T370 763T408 750Q431 750 446 772T466 830L490 828Q489 785 468 754T408 722Z" />
<glyph unicode="&#xd2;" horiz-adv-x="648" d="M324 -12Q246 -12 186 30T91 150T56 332Q56 436 90 512T185 630T324 672Q402 672 462 631T557 513T592 332Q592 228 558 151T463 31T324 -12ZM324 18Q394 18 446 57T528 166T558 332Q558 427 529 496T447 604T324
642Q254 642 202 604T120 497T90 332Q90 237 119 167T201 57T324 18ZM358 710L204 826L206 830H254L394 710H358Z" />
<glyph unicode="&#xd3;" horiz-adv-x="648" d="M324 -12Q246 -12 186 30T91 150T56 332Q56 436 90 512T185 630T324 672Q402 672 462 631T557 513T592 332Q592 228 558 151T463 31T324 -12ZM324 18Q394 18 446 57T528 166T558 332Q558 427 529 496T447 604T324
642Q254 642 202 604T120 497T90 332Q90 237 119 167T201 57T324 18ZM254 710L394 830H442L444 826L290 710H254Z" />
<glyph unicode="&#xd4;" horiz-adv-x="648" d="M324 -12Q246 -12 186 30T91 150T56 332Q56 436 90 512T185 630T324 672Q402 672 462 631T557 513T592 332Q592 228 558 151T463 31T324 -12ZM324 18Q394 18 446 57T528 166T558 332Q558 427 529 496T447 604T324
642Q254 642 202 604T120 497T90 332Q90 237 119 167T201 57T324 18ZM174 710L314 830H334L474 710H440L326 800H322L208 710H174Z" />
<glyph unicode="&#xd5;" horiz-adv-x="648" d="M324 -12Q246 -12 186 30T91 150T56 332Q56 436 90 512T185 630T324 672Q402 672 462 631T557 513T592 332Q592 228 558 151T463 31T324 -12ZM324 18Q394 18 446 57T528 166T558 332Q558 427 529 496T447 604T324
642Q254 642 202 604T120 497T90 332Q90 237 119 167T201 57T324 18ZM402 722Q373 722 353 734T317 763T285 791T246 804Q223 804 207 782T188 724L164 726Q166 769 186 800T246 832Q275 832 295 820T332 791T364 763T402 750Q425 750 440 772T460 830L484 828Q483
785 462 754T402 722Z" />
<glyph unicode="&#xd6;" horiz-adv-x="648" d="M324 -12Q246 -12 186 30T91 150T56 332Q56 436 90 512T185 630T324 672Q402 672 462 631T557 513T592 332Q592 228 558 151T463 31T324 -12ZM324 18Q394 18 446 57T528 166T558 332Q558 427 529 496T447 604T324
642Q254 642 202 604T120 497T90 332Q90 237 119 167T201 57T324 18ZM228 728Q215 728 206 736T196 760Q196 775 205 783T228 792Q242 792 251 784T260 760Q260 745 251 737T228 728ZM420 728Q407 728 398 736T388 760Q388 775 397 783T420 792Q434 792 443 784T452
760Q452 745 443 737T420 728Z" />
<glyph unicode="&#xd7;" horiz-adv-x="472" d="M72 138L52 160L216 330L52 500L72 522L236 350L400 522L420 500L256 330L420 160L400 138L236 310L72 138Z" />
<glyph unicode="&#xd8;" horiz-adv-x="648" d="M80 -20L58 -4L564 680L586 664L80 -20ZM328 -12Q250 -12 190 30T95 150T60 332Q60 436 94 512T189 630T328 672Q406 672 466 631T561 513T596 332Q596 228 562 151T467 31T328 -12ZM328 18Q398 18 450 57T532 166T562
332Q562 427 533 496T451 604T328 642Q258 642 206 604T124 497T94 332Q94 237 123 167T205 57T328 18Z" />
<glyph unicode="&#xd9;" horiz-adv-x="630" d="M314 -12Q274 -12 236 0T166 40T117 119T98 246V660H130V254Q130 163 156 112T224 39T314 18Q363 18 406 39T475 111T502 254V660H532V246Q532 170 513 120T463 41T393 0T314 -12ZM348 710L194 826L196 830H244L384
710H348Z" />
<glyph unicode="&#xda;" horiz-adv-x="630" d="M314 -12Q274 -12 236 0T166 40T117 119T98 246V660H130V254Q130 163 156 112T224 39T314 18Q363 18 406 39T475 111T502 254V660H532V246Q532 170 513 120T463 41T393 0T314 -12ZM244 710L384 830H432L434 826L280
710H244Z" />
<glyph unicode="&#xdb;" horiz-adv-x="630" d="M314 -12Q274 -12 236 0T166 40T117 119T98 246V660H130V254Q130 163 156 112T224 39T314 18Q363 18 406 39T475 111T502 254V660H532V246Q532 170 513 120T463 41T393 0T314 -12ZM164 710L304 830H324L464 710H430L316
800H312L198 710H164Z" />
<glyph unicode="&#xdc;" horiz-adv-x="630" d="M314 -12Q274 -12 236 0T166 40T117 119T98 246V660H130V254Q130 163 156 112T224 39T314 18Q363 18 406 39T475 111T502 254V660H532V246Q532 170 513 120T463 41T393 0T314 -12ZM218 728Q205 728 196 736T186 760Q186
775 195 783T218 792Q232 792 241 784T250 760Q250 745 241 737T218 728ZM410 728Q397 728 388 736T378 760Q378 775 387 783T410 792Q424 792 433 784T442 760Q442 745 433 737T410 728Z" />
<glyph unicode="&#xdd;" horiz-adv-x="436" d="M202 0V272L4 660H38L144 446Q162 410 179 375T216 304H220Q240 340 259 375T294 446L400 660H432L234 272V0H202ZM150 710L290 830H338L340 826L186 710H150Z" />
<glyph unicode="&#xde;" horiz-adv-x="556" d="M100 0V660H132V540H272Q346 540 398 523T477 466T504 360Q504 297 477 256T398 193T272 172H132V0H100ZM132 200H260Q367 200 418 237T470 360Q470 447 419 479T260 512H132V200Z" />
<glyph unicode="&#xdf;" horiz-adv-x="530" d="M360 -12Q321 -12 287 0T226 40L244 60Q271 36 299 26T360 16Q414 16 441 49T468 122Q468 159 454 182T416 221T366 250T317 278T279 316T264 376Q264 414 281 441T320 491T359 540T376 600Q376 645 348 674T266
704Q203 704 165 661T126 524V0H96V538Q96 599 118 642T178 709T268 732Q311 732 342 715T391 669T408 602Q408 563 391 535T352 483T313 435T296 378Q296 348 310 329T348 296T398 269T447 239T485 194T500 124Q500 85 482 55T432 6T360 -12Z" />
<glyph unicode="&#xe0;" horiz-adv-x="486" d="M198 -12Q161 -12 130 1T79 43T60 117Q60 197 136 238T374 298Q375 337 367 375T332 437T256 462Q205 462 164 443T100 406L84 428Q99 440 125 454T185 479T258 490Q314 490 346 465T391 399T404 310V0H378L374 64H372Q335
34 291 11T198 -12ZM200 16Q244 16 285 37T374 98V272Q269 260 208 240T119 189T92 118Q92 63 124 40T200 16ZM300 570L150 716L152 720H190L330 570H300Z" />
<glyph unicode="&#xe1;" horiz-adv-x="486" d="M198 -12Q161 -12 130 1T79 43T60 117Q60 197 136 238T374 298Q375 337 367 375T332 437T256 462Q205 462 164 443T100 406L84 428Q99 440 125 454T185 479T258 490Q314 490 346 465T391 399T404 310V0H378L374 64H372Q335
34 291 11T198 -12ZM200 16Q244 16 285 37T374 98V272Q269 260 208 240T119 189T92 118Q92 63 124 40T200 16ZM190 570L330 720H368L370 716L220 570H190Z" />
<glyph unicode="&#xe2;" horiz-adv-x="486" d="M198 -12Q161 -12 130 1T79 43T60 117Q60 197 136 238T374 298Q375 337 367 375T332 437T256 462Q205 462 164 443T100 406L84 428Q99 440 125 454T185 479T258 490Q314 490 346 465T391 399T404 310V0H378L374 64H372Q335
34 291 11T198 -12ZM200 16Q244 16 285 37T374 98V272Q269 260 208 240T119 189T92 118Q92 63 124 40T200 16ZM110 570L250 720H270L410 570H380L262 686H258L140 570H110Z" />
<glyph unicode="&#xe3;" horiz-adv-x="486" d="M198 -12Q161 -12 130 1T79 43T60 117Q60 197 136 238T374 298Q375 337 367 375T332 437T256 462Q205 462 164 443T100 406L84 428Q99 440 125 454T185 479T258 490Q314 490 346 465T391 399T404 310V0H378L374 64H372Q335
34 291 11T198 -12ZM200 16Q244 16 285 37T374 98V272Q269 260 208 240T119 189T92 118Q92 63 124 40T200 16ZM337 580Q308 580 288 595T252 630T220 665T182 680Q154 680 141 652T126 582L100 584Q102 613 109 641T134 687T184 706Q213 706 232 691T268 656T300
621T339 606Q367 606 380 635T394 704L420 702Q418 674 411 646T386 599T337 580Z" />
<glyph unicode="&#xe4;" horiz-adv-x="486" d="M198 -12Q161 -12 130 1T79 43T60 117Q60 197 136 238T374 298Q375 337 367 375T332 437T256 462Q205 462 164 443T100 406L84 428Q99 440 125 454T185 479T258 490Q314 490 346 465T391 399T404 310V0H378L374 64H372Q335
34 291 11T198 -12ZM200 16Q244 16 285 37T374 98V272Q269 260 208 240T119 189T92 118Q92 63 124 40T200 16ZM174 602Q161 602 152 611T142 634Q142 648 151 657T174 666Q188 666 197 657T206 634Q206 621 197 612T174 602ZM346 602Q333 602 324 611T314 634Q314
648 323 657T346 666Q360 666 369 657T378 634Q378 621 369 612T346 602Z" />
<glyph unicode="&#xe5;" horiz-adv-x="486" d="M198 -12Q161 -12 130 1T79 43T60 117Q60 197 136 238T374 298Q375 337 367 375T332 437T256 462Q205 462 164 443T100 406L84 428Q99 440 125 454T185 479T258 490Q314 490 346 465T391 399T404 310V0H378L374 64H372Q335
34 291 11T198 -12ZM200 16Q244 16 285 37T374 98V272Q269 260 208 240T119 189T92 118Q92 63 124 40T200 16ZM260 546Q221 546 195 572T168 640Q168 682 194 708T260 734Q299 734 325 708T352 640Q352 598 326 572T260 546ZM260 568Q289 568 308 587T328 640Q328
673 309 692T260 712Q232 712 212 693T192 640Q192 607 212 588T260 568Z" />
<glyph unicode="&#xe6;" horiz-adv-x="776" d="M198 -12Q161 -12 130 1T79 42T60 116Q60 197 136 238T368 298Q369 337 361 375T326 437T250 462Q204 462 164 443T100 406L84 428Q99 440 125 454T183 479T252 490Q312 490 347 456T392 364Q418 421 463 455T562
490Q617 490 656 465T717 390T738 270Q738 263 738 255T736 238H398Q397 174 420 124T484 45T576 16Q617 16 648 26T704 56L718 34Q691 15 660 2T574 -12Q530 -12 498 3T443 41T402 90Q356 44 300 16T198 -12ZM200 16Q241 16 294 42T390 116Q380 139 374 173T368
244V272Q218 254 155 217T92 118Q92 63 124 40T200 16ZM398 264H708Q708 363 669 412T562 462Q520 462 485 437T426 367T398 264Z" />
<glyph unicode="&#xe7;" horiz-adv-x="446" d="M268 -12Q207 -12 159 17T82 103T54 238Q54 318 84 374T162 460T268 490Q318 490 351 473T408 430L390 412Q368 435 338 448T268 462Q217 462 176 434T111 355T86 238Q86 172 108 122T172 44T268 16Q309 16 343 31T402
72L420 54Q390 24 353 6T268 -12ZM196 -216L190 -190Q256 -185 280 -172T304 -136Q304 -113 286 -102T226 -84L266 2H294L264 -66Q296 -73 315 -88T334 -134Q334 -171 299 -191T196 -216Z" />
<glyph unicode="&#xe8;" horiz-adv-x="478" d="M272 -12Q212 -12 163 18T84 104T54 238Q54 316 83 372T160 459T260 490Q315 490 355 465T418 390T440 270Q440 263 440 255T438 238H70V266H410Q410 365 369 413T260 462Q218 462 178 438T112 364T86 240Q86 172
110 122T178 44T274 16Q315 16 348 27T406 56L420 34Q393 16 360 2T272 -12ZM300 570L150 716L152 720H190L330 570H300Z" />
<glyph unicode="&#xe9;" horiz-adv-x="478" d="M272 -12Q212 -12 163 18T84 104T54 238Q54 316 83 372T160 459T260 490Q315 490 355 465T418 390T440 270Q440 263 440 255T438 238H70V266H410Q410 365 369 413T260 462Q218 462 178 438T112 364T86 240Q86 172
110 122T178 44T274 16Q315 16 348 27T406 56L420 34Q393 16 360 2T272 -12ZM190 570L330 720H368L370 716L220 570H190Z" />
<glyph unicode="&#xea;" horiz-adv-x="478" d="M272 -12Q212 -12 163 18T84 104T54 238Q54 316 83 372T160 459T260 490Q315 490 355 465T418 390T440 270Q440 263 440 255T438 238H70V266H410Q410 365 369 413T260 462Q218 462 178 438T112 364T86 240Q86 172
110 122T178 44T274 16Q315 16 348 27T406 56L420 34Q393 16 360 2T272 -12ZM110 570L250 720H270L410 570H380L262 686H258L140 570H110Z" />
<glyph unicode="&#xeb;" horiz-adv-x="478" d="M272 -12Q212 -12 163 18T84 104T54 238Q54 316 83 372T160 459T260 490Q315 490 355 465T418 390T440 270Q440 263 440 255T438 238H70V266H410Q410 365 369 413T260 462Q218 462 178 438T112 364T86 240Q86 172
110 122T178 44T274 16Q315 16 348 27T406 56L420 34Q393 16 360 2T272 -12ZM174 602Q161 602 152 611T142 634Q142 648 151 657T174 666Q188 666 197 657T206 634Q206 621 197 612T174 602ZM346 602Q333 602 324 611T314 634Q314 648 323 657T346 666Q360 666
369 657T378 634Q378 621 369 612T346 602Z" />
<glyph unicode="&#xec;" horiz-adv-x="222" d="M96 0V478H126V0H96ZM150 570L0 716L2 720H40L180 570H150Z" />
<glyph unicode="&#xed;" horiz-adv-x="222" d="M96 0V478H126V0H96ZM40 570L180 720H218L220 716L70 570H40Z" />
<glyph unicode="&#xee;" horiz-adv-x="222" d="M96 0V478H126V0H96ZM-40 570L100 720H120L260 570H230L112 686H108L-10 570H-40Z" />
<glyph unicode="&#xef;" horiz-adv-x="222" d="M96 0V478H126V0H96ZM24 602Q11 602 2 611T-8 634Q-8 648 1 657T24 666Q38 666 47 657T56 634Q56 621 47 612T24 602ZM196 602Q183 602 174 611T164 634Q164 648 173 657T196 666Q210 666 219 657T228 634Q228 621
219 612T196 602Z" />
<glyph unicode="&#xf0;" horiz-adv-x="532" d="M266 -12Q214 -12 168 15T92 94T62 218Q62 283 88 333T160 411T270 440Q318 440 360 417T434 346V308Q392 373 351 392T268 412Q211 412 172 385T114 314T94 218Q94 159 117 114T180 42T266 16Q324 16 360 48T414
133T432 250Q432 348 408 420T342 545T242 636T118 702L132 724Q202 696 262 657T367 561T438 428T464 250Q464 170 439 111T369 20T266 -12ZM142 520L130 542L432 700L444 678L142 520Z" />
<glyph unicode="&#xf1;" horiz-adv-x="526" d="M96 0V478H122L126 402H128Q166 440 205 465T294 490Q368 490 403 446T438 308V0H408V304Q408 384 381 423T292 462Q247 462 210 438T126 366V0H96ZM357 580Q328 580 308 595T272 630T240 665T202 680Q174 680 161
652T146 582L120 584Q122 613 129 641T154 687T204 706Q233 706 252 691T288 656T320 621T359 606Q387 606 400 635T414 704L440 702Q438 674 431 646T406 599T357 580Z" />
<glyph unicode="&#xf2;" horiz-adv-x="532" d="M266 -12Q209 -12 161 17T83 103T54 238Q54 318 83 374T160 460T266 490Q323 490 371 461T448 375T478 238Q478 159 449 103T371 18T266 -12ZM266 16Q317 16 358 44T422 122T446 238Q446 304 423 354T358 433T266
462Q215 462 175 434T110 355T86 238Q86 172 110 122T174 44T266 16ZM306 570L156 716L158 720H196L336 570H306Z" />
<glyph unicode="&#xf3;" horiz-adv-x="532" d="M266 -12Q209 -12 161 17T83 103T54 238Q54 318 83 374T160 460T266 490Q323 490 371 461T448 375T478 238Q478 159 449 103T371 18T266 -12ZM266 16Q317 16 358 44T422 122T446 238Q446 304 423 354T358 433T266
462Q215 462 175 434T110 355T86 238Q86 172 110 122T174 44T266 16ZM196 570L336 720H374L376 716L226 570H196Z" />
<glyph unicode="&#xf4;" horiz-adv-x="532" d="M266 -12Q209 -12 161 17T83 103T54 238Q54 318 83 374T160 460T266 490Q323 490 371 461T448 375T478 238Q478 159 449 103T371 18T266 -12ZM266 16Q317 16 358 44T422 122T446 238Q446 304 423 354T358 433T266
462Q215 462 175 434T110 355T86 238Q86 172 110 122T174 44T266 16ZM116 570L256 720H276L416 570H386L268 686H264L146 570H116Z" />
<glyph unicode="&#xf5;" horiz-adv-x="532" d="M266 -12Q209 -12 161 17T83 103T54 238Q54 318 83 374T160 460T266 490Q323 490 371 461T448 375T478 238Q478 159 449 103T371 18T266 -12ZM266 16Q317 16 358 44T422 122T446 238Q446 304 423 354T358 433T266
462Q215 462 175 434T110 355T86 238Q86 172 110 122T174 44T266 16ZM343 580Q314 580 294 595T258 630T226 665T188 680Q160 680 147 652T132 582L106 584Q108 613 115 641T140 687T190 706Q219 706 238 691T274 656T306 621T345 606Q373 606 386 635T400 704L426
702Q424 674 417 646T392 599T343 580Z" />
<glyph unicode="&#xf6;" horiz-adv-x="532" d="M266 -12Q209 -12 161 17T83 103T54 238Q54 318 83 374T160 460T266 490Q323 490 371 461T448 375T478 238Q478 159 449 103T371 18T266 -12ZM266 16Q317 16 358 44T422 122T446 238Q446 304 423 354T358 433T266
462Q215 462 175 434T110 355T86 238Q86 172 110 122T174 44T266 16ZM180 602Q167 602 158 611T148 634Q148 648 157 657T180 666Q194 666 203 657T212 634Q212 621 203 612T180 602ZM352 602Q339 602 330 611T320 634Q320 648 329 657T352 666Q366 666 375 657T384
634Q384 621 375 612T352 602Z" />
<glyph unicode="&#xf7;" horiz-adv-x="472" d="M34 316V344H438V316H34ZM236 114Q223 114 214 124T204 150Q204 165 213 174T236 184Q250 184 259 175T268 150Q268 134 259 124T236 114ZM236 474Q223 474 214 484T204 510Q204 525 213 534T236 544Q250 544 259
535T268 510Q268 494 259 484T236 474Z" />
<glyph unicode="&#xf8;" horiz-adv-x="532" d="M266 -12Q209 -12 161 17T83 103T54 238Q54 318 83 374T160 460T266 490Q323 490 371 461T448 375T478 238Q478 159 449 103T371 18T266 -12ZM266 16Q317 16 358 44T422 122T446 238Q446 304 423 354T358 433T266
462Q215 462 175 434T110 355T86 238Q86 172 110 122T174 44T266 16ZM68 -22L46 -4L464 498L486 480L68 -22Z" />
<glyph unicode="&#xf9;" horiz-adv-x="524" d="M232 -12Q159 -12 124 32T88 170V478H118V174Q118 95 145 56T234 16Q279 16 316 41T398 120V478H428V0H402L398 82H396Q360 40 321 14T232 -12ZM300 570L150 716L152 720H190L330 570H300Z" />
<glyph unicode="&#xfa;" horiz-adv-x="524" d="M232 -12Q159 -12 124 32T88 170V478H118V174Q118 95 145 56T234 16Q279 16 316 41T398 120V478H428V0H402L398 82H396Q360 40 321 14T232 -12ZM190 570L330 720H368L370 716L220 570H190Z" />
<glyph unicode="&#xfb;" horiz-adv-x="524" d="M232 -12Q159 -12 124 32T88 170V478H118V174Q118 95 145 56T234 16Q279 16 316 41T398 120V478H428V0H402L398 82H396Q360 40 321 14T232 -12ZM110 570L250 720H270L410 570H380L262 686H258L140 570H110Z" />
<glyph unicode="&#xfc;" horiz-adv-x="524" d="M232 -12Q159 -12 124 32T88 170V478H118V174Q118 95 145 56T234 16Q279 16 316 41T398 120V478H428V0H402L398 82H396Q360 40 321 14T232 -12ZM174 602Q161 602 152 611T142 634Q142 648 151 657T174 666Q188 666
197 657T206 634Q206 621 197 612T174 602ZM346 602Q333 602 324 611T314 634Q314 648 323 657T346 666Q360 666 369 657T378 634Q378 621 369 612T346 602Z" />
<glyph unicode="&#xfd;" horiz-adv-x="424" d="M66 -222Q54 -222 42 -219T20 -212L30 -184Q38 -187 48 -189T68 -192Q113 -192 145 -153T196 -56L210 -12L12 478H46L168 164Q180 134 194 98T222 30H226Q238 62 250 98T272 164L380 478H412L220 -68Q208 -105 188
-140T137 -199T66 -222ZM150 570L290 720H328L330 716L180 570H150Z" />
<glyph unicode="&#xfe;" horiz-adv-x="540" d="M96 -222V722H126V510V416Q164 445 206 467T294 490Q359 490 401 460T465 375T486 246Q486 165 457 108T379 19T274 -12Q240 -12 203 4T126 48V-42V-222H96ZM276 16Q328 16 368 45T431 127T454 246Q454 307 438 356T387
433T292 462Q255 462 214 441T126 378V82Q170 46 209 31T276 16Z" />
<glyph unicode="&#xff;" horiz-adv-x="424" d="M66 -222Q54 -222 42 -219T20 -212L30 -184Q38 -187 48 -189T68 -192Q113 -192 145 -153T196 -56L210 -12L12 478H46L168 164Q180 134 194 98T222 30H226Q238 62 250 98T272 164L380 478H412L220 -68Q208 -105 188
-140T137 -199T66 -222ZM134 602Q121 602 112 611T102 634Q102 648 111 657T134 666Q148 666 157 657T166 634Q166 621 157 612T134 602ZM306 602Q293 602 284 611T274 634Q274 648 283 657T306 666Q320 666 329 657T338 634Q338 621 329 612T306 602Z" />
<glyph unicode="&#x2013;" horiz-adv-x="480" d="M40 236V264H440V236H40Z" />
<glyph unicode="&#x2014;" horiz-adv-x="800" d="M40 236V264H760V236H40Z" />
<glyph unicode="&#x2018;" horiz-adv-x="208" d="M96 500Q80 500 69 515T58 558Q58 609 79 645T136 706L152 688Q121 661 105 634T88 564L106 514L70 552Q78 561 82 563T96 566Q108 566 119 559T130 534Q130 518 121 509T96 500Z" />
<glyph unicode="&#x2019;" horiz-adv-x="208" d="M72 494L56 512Q88 539 104 566T120 636L102 686L138 648Q131 639 126 637T112 634Q100 634 89 642T78 666Q78 683 87 691T112 700Q129 700 139 686T150 642Q150 591 129 556T72 494Z" />
<glyph unicode="&#x201a;" horiz-adv-x="208" d="M72 -126L56 -108Q88 -81 104 -54T120 16L102 66L138 28Q131 19 126 17T112 14Q100 14 89 22T78 46Q78 63 87 71T112 80Q129 80 139 66T150 22Q150 -29 129 -64T72 -126Z" />
<glyph unicode="&#x201c;" horiz-adv-x="336" d="M96 500Q80 500 69 515T58 558Q58 609 79 645T136 706L152 688Q121 661 105 634T88 564L106 514L70 552Q78 561 82 563T96 566Q108 566 119 559T130 534Q130 518 121 509T96 500ZM224 500Q208 500 197 515T186
558Q186 609 207 645T264 706L280 688Q249 661 233 634T216 564L234 514L198 552Q206 561 210 563T224 566Q236 566 247 559T258 534Q258 518 249 509T224 500Z" />
<glyph unicode="&#x201d;" horiz-adv-x="336" d="M72 494L56 512Q88 539 104 566T120 636L102 686L138 648Q131 639 126 637T112 634Q100 634 89 642T78 666Q78 683 87 691T112 700Q129 700 139 686T150 642Q150 591 129 556T72 494ZM200 494L184 512Q216 539
232 566T248 636L230 686L266 648Q259 639 254 637T240 634Q228 634 217 642T206 666Q206 683 215 691T240 700Q257 700 267 686T278 642Q278 591 257 556T200 494Z" />
<glyph unicode="&#x201e;" horiz-adv-x="336" d="M72 -126L56 -108Q88 -81 104 -54T120 16L102 66L138 28Q131 19 126 17T112 14Q100 14 89 22T78 46Q78 63 87 71T112 80Q129 80 139 66T150 22Q150 -29 129 -64T72 -126ZM200 -126L184 -108Q216 -81 232 -54T248
16L230 66L266 28Q259 19 254 17T240 14Q228 14 217 22T206 46Q206 63 215 71T240 80Q257 80 267 66T278 22Q278 -29 257 -64T200 -126Z" />
<glyph unicode="&#x2022;" horiz-adv-x="272" d="M136 158Q112 158 90 171T54 207T40 264Q40 297 54 320T90 357T136 370Q160 370 182 357T218 321T232 264Q232 231 218 208T182 171T136 158Z" />
<glyph unicode="&#x2039;" horiz-adv-x="254" d="M180 74L42 238V266L180 430L200 412L76 252L200 90L180 74Z" />
<glyph unicode="&#x203a;" horiz-adv-x="254" d="M74 74L54 90L178 252L54 412L74 430L212 266V238L74 74Z" />
</font>
</defs>
</svg>
