<?xml version="1.0" standalone="no"?>
<!DOCTYPE svg PUBLIC "-//W3C//DTD SVG 1.1//EN" "http://www.w3.org/Graphics/SVG/1.1/DTD/svg11.dtd">
<svg xmlns="http://www.w3.org/2000/svg">
<defs >
<font id="SourceSans3" horiz-adv-x="471" ><font-face
    font-family="Source Sans 3 ExtraLight"
    units-per-em="1000"
    panose-1="2 11 3 3 3 4 3 2 2 4"
    ascent="1024"
    descent="-400"
    alphabetic="0" />
<glyph unicode=" " horiz-adv-x="200" />
<glyph unicode="!" horiz-adv-x="289" d="M116 198L105 576L103 670H186L184 576L173 198H116ZM145 -12Q121 -12 103 5T85 50Q85 79 103 96T145 114Q170 114 187 97T204 50Q204 23 187 6T145 -12Z" />
<glyph unicode="&quot;" horiz-adv-x="426" d="M99 431L83 598L80 690H168L165 598L149 431H99ZM276 431L260 598L257 690H345L342 598L326 431H276Z" />
<glyph unicode="#" horiz-adv-x="497" d="M88 0L113 201H34V264H119L137 407H54V470H144L168 650H228L204 470H329L353 650H413L389 470H469V407H383L364 264H449V201H357L333 0H273L297 201H173L148 0H88ZM179 264H304L323 407H197L179 264Z" />
<glyph unicode="$" horiz-adv-x="497" d="M245 -12Q188 -12 137 9T52 69L91 120Q122 91 160 74T245 56Q300 56 328 86T356 165Q356 200 336 225T284 269T217 308T149 351T97 405T77 481Q77 531 99 569T162 628T256 650Q314 650 354 628T424 571L380 526Q357 553
328 567T257 581Q212 581 185 555T158 485Q158 453 178 430T230 389T297 351T365 309T417 252T437 171Q437 116 413 75T346 11T245 -12ZM222 -110V17H282V-110H222ZM222 619V748H282V619H222Z" />
<glyph unicode="%" horiz-adv-x="824" d="M184 254Q139 254 106 278T54 349T35 462Q35 561 76 614T184 668Q251 668 292 615T333 462Q333 396 315 350T263 279T184 254ZM184 305Q223 305 246 344T270 462Q270 541 247 579T184 617Q146 617 122 579T97 462Q97 384
121 345T184 305ZM203 -12L565 668H621L259 -12H203ZM641 -12Q596 -12 563 12T511 83T492 196Q492 295 533 348T641 402Q708 402 749 349T790 196Q790 130 772 84T720 13T641 -12ZM641 39Q680 39 703 78T727 196Q727 275 704 313T641 351Q603 351 579 313T554 196Q554
118 578 79T641 39Z" />
<glyph unicode="&amp;" horiz-adv-x="609" d="M236 -12Q177 -12 131 10T59 73T32 170Q32 218 53 255T109 320T182 373T254 422T310 474T332 537Q332 566 318 587T270 609Q234 609 212 582T189 514Q189 467 212 416T272 313T356 216T450 134Q489 104 527 85T594
56L572 -12Q533 -1 490 22T400 79Q347 121 296 174T205 285T142 402T118 513Q118 556 137 591T190 647T270 668Q331 668 365 632T399 538Q399 496 378 463T325 401T255 347T186 296T133 241T112 175Q112 137 129 110T176 69T241 54Q283 54 321 75T392 131Q432 174
462 230T509 354H586Q566 281 532 214T449 91Q409 46 358 17T236 -12Z" />
<glyph unicode="&apos;" horiz-adv-x="249" d="M99 431L83 598L80 690H168L165 598L149 431H99Z" />
<glyph unicode="(" horiz-adv-x="303" d="M214 -176Q152 -75 117 35T82 278Q82 410 117 521T214 732L265 708Q207 613 179 503T150 278Q150 164 178 54T265 -152L214 -176Z" />
<glyph unicode=")" horiz-adv-x="303" d="M89 -176L38 -152Q96 -56 124 54T153 278Q153 392 125 502T38 708L89 732Q152 632 186 521T221 278Q221 146 187 36T89 -176Z" />
<glyph unicode="*" horiz-adv-x="418" d="M138 420L98 449L155 543L58 583L73 629L175 604L184 712H233L242 605L345 629L360 583L263 543L319 449L280 420L209 506L138 420Z" />
<glyph unicode="+" horiz-adv-x="497" d="M216 104V299H34V361H216V556H281V361H463V299H281V104H216Z" />
<glyph unicode="," horiz-adv-x="249" d="M67 -170L47 -122Q90 -103 114 -71T137 2L128 76L169 16Q160 7 150 3T127 -1Q103 -1 86 14T68 56Q68 83 86 98T129 114Q162 114 180 89T198 17Q198 -47 163 -96T67 -170Z" />
<glyph unicode="-" horiz-adv-x="311" d="M41 219V282H271V219H41Z" />
<glyph unicode="." horiz-adv-x="249" d="M125 -12Q101 -12 83 5T65 50Q65 79 83 96T125 114Q150 114 167 97T184 50Q184 23 167 6T125 -12Z" />
<glyph unicode="/" horiz-adv-x="350" d="M10 -160L277 710H337L70 -160H10Z" />
<glyph unicode="0" horiz-adv-x="497" d="M249 -12Q153 -12 99 74T44 321Q44 482 98 566T249 650Q344 650 398 566T453 321Q453 161 399 75T249 -12ZM249 54Q286 54 314 82T357 169T373 321Q373 415 358 473T314 557T249 584Q211 584 183 558T140 473T124 321Q124
228 139 169T183 82T249 54Z" />
<glyph unicode="1" horiz-adv-x="497" d="M79 0V68H225V538H109V591Q152 599 185 610T244 638H307V68H439V0H79Z" />
<glyph unicode="2" horiz-adv-x="497" d="M40 0V50Q135 144 202 216T305 348T340 458Q340 513 310 548T219 583Q179 583 145 561T83 506L37 551Q77 596 122 623T229 650Q288 650 331 627T397 561T420 463Q420 401 386 340T291 212T153 65Q179 68 207 69T260 71H452V0H40Z" />
<glyph unicode="3" horiz-adv-x="497" d="M236 -12Q185 -12 146 1T77 34T26 78L68 132Q97 102 135 79T231 56Q289 56 326 88T363 173Q363 211 344 239T280 284T159 300V363Q227 363 266 379T323 421T340 482Q340 529 311 556T230 583Q190 583 156 565T94 518L50
570Q87 605 132 627T233 650Q289 650 332 631T399 576T424 488Q424 430 392 393T308 336V332Q347 323 378 302T427 247T446 170Q446 113 418 73T342 10T236 -12Z" />
<glyph unicode="4" horiz-adv-x="497" d="M304 0V427Q304 452 306 488T309 550H305Q293 527 280 506T253 460L104 242H469V176H17V230L290 638H382V0H304Z" />
<glyph unicode="5" horiz-adv-x="497" d="M234 -12Q183 -12 144 0T76 33T25 75L65 129Q94 101 132 79T226 56Q265 56 296 74T347 124T366 202Q366 268 329 305T230 342Q198 342 174 332T121 303L77 331L98 638H417V567H170L153 378Q176 390 199 397T251 404Q306
404 351 383T422 318T449 204Q449 135 419 87T339 13T234 -12Z" />
<glyph unicode="6" horiz-adv-x="497" d="M268 -12Q221 -12 181 7T112 64T65 160T48 295Q48 391 68 458T122 568T199 630T291 650Q343 650 380 631T445 582L399 531Q380 554 352 567T294 581Q249 581 211 554T149 465T126 295Q126 216 142 162T191 81T268 53Q299
53 324 70T364 119T379 193Q379 234 366 264T327 311T261 328Q230 328 194 308T124 238L121 303Q152 343 193 366T275 390Q330 390 371 368T434 302T457 193Q457 132 431 86T362 14T268 -12Z" />
<glyph unicode="7" horiz-adv-x="497" d="M171 0Q175 90 187 165T222 307T279 437T363 567H44V638H455V587Q398 515 361 449T302 314T270 170T256 0H171Z" />
<glyph unicode="8" horiz-adv-x="497" d="M250 -12Q190 -12 143 10T68 73T41 163Q41 205 58 237T103 294T161 335V339Q126 364 99 400T72 486Q72 535 96 572T160 629T253 650Q336 650 384 603T433 480Q433 447 419 418T385 365T345 326V322Q373 306 398 284T440
232T456 158Q456 111 431 73T359 11T250 -12ZM295 348Q328 377 345 409T362 476Q362 507 349 532T311 573T251 589Q207 589 178 561T148 486Q148 448 168 423T222 381T295 348ZM252 49Q289 49 317 63T361 102T377 161Q377 202 353 228T290 272T204 310Q166 285
141 250T115 171Q115 136 133 109T182 65T252 49Z" />
<glyph unicode="9" horiz-adv-x="497" d="M205 -12Q154 -12 116 7T51 55L97 107Q117 84 144 70T202 56Q248 56 286 83T347 173T371 343Q371 422 354 475T306 557T228 585Q197 585 172 568T132 519T117 445Q117 404 130 374T170 327T235 310Q266 310 303 330T372
400L375 335Q346 295 304 272T221 248Q166 248 125 270T62 336T40 445Q40 506 65 552T134 624T228 650Q275 650 315 631T385 574T431 478T448 343Q448 247 428 179T374 69T297 8T205 -12Z" />
<glyph unicode=":" horiz-adv-x="249" d="M125 349Q101 349 83 366T65 411Q65 440 83 457T125 475Q150 475 167 458T184 411Q184 384 167 367T125 349ZM125 -12Q101 -12 83 5T65 50Q65 79 83 96T125 114Q150 114 167 97T184 50Q184 23 167 6T125 -12Z" />
<glyph unicode=";" horiz-adv-x="249" d="M125 349Q101 349 83 366T65 411Q65 440 83 457T125 475Q150 475 167 458T184 411Q184 384 167 367T125 349ZM67 -170L47 -122Q90 -103 114 -71T137 2L128 76L169 16Q160 7 150 3T127 -1Q103 -1 86 14T68 56Q68 83 86
98T129 114Q162 114 180 89T198 17Q198 -47 163 -96T67 -170Z" />
<glyph unicode="&lt;" horiz-adv-x="497" d="M463 131L34 299V365L463 533V462L252 384L118 334V330L252 280L463 202V131Z" />
<glyph unicode="=" horiz-adv-x="497" d="M34 406V468H463V406H34ZM34 448V510H463V448H34Z" />
<glyph unicode="&gt;" horiz-adv-x="497" d="M34 131V202L245 280L379 330V334L245 384L34 462V533L463 365V299L34 131Z" />
<glyph unicode="?" horiz-adv-x="425" d="M160 198Q153 245 165 281T198 347T242 404T281 458T297 517Q297 544 286 566T254 601T200 614Q168 614 139 599T85 556L38 599Q70 635 112 658T210 682Q260 682 298 663T356 608T377 522Q377 483 361 452T322 392T276
335T241 273T232 198H160ZM198 -12Q174 -12 157 5T139 50Q139 79 156 96T198 114Q223 114 240 97T258 50Q258 23 241 6T198 -12Z" />
<glyph unicode="@" horiz-adv-x="847" d="M403 -155Q330 -155 266 -132T154 -64T78 49T51 203Q51 304 84 385T175 525T308 615T468 646Q569 646 642 605T756 489T797 315Q797 249 779 199T732 115T667 64T597 47Q555 47 527 66T493 125H491Q467 94 435 74T369
54Q317 54 282 91T246 198Q246 239 259 280T299 355T361 411T441 432Q467 432 487 420T521 382H523L534 423H589L550 222Q537 162 550 135T603 107Q634 107 663 131T711 202T731 312Q731 370 714 419T663 505T578 562T461 583Q396 583 335 557T225 481T148 362T119
206Q119 135 140 80T201 -14T294 -72T409 -92Q454 -92 494 -81T569 -51L593 -104Q549 -129 502 -142T403 -155ZM385 115Q406 115 429 129T477 173L506 331Q492 353 477 362T442 371Q403 371 376 345T333 280T317 203Q317 156 336 136T385 115Z" />
<glyph unicode="A" horiz-adv-x="543" d="M3 0L225 656H319L541 0H453L338 367Q320 422 304 476T272 588H268Q253 531 237 477T203 367L87 0H3ZM119 200V266H422V200H119Z" />
<glyph unicode="B" horiz-adv-x="588" d="M90 0V656H285Q351 656 402 640T481 589T510 496Q510 445 486 407T414 353V349Q476 338 512 300T548 195Q548 129 517 86T429 22T299 0H90ZM173 377H270Q354 377 391 406T428 485Q428 543 389 566T274 590H173V377ZM173
66H287Q372 66 419 97T466 195Q466 256 420 284T287 313H173V66Z" />
<glyph unicode="C" horiz-adv-x="571" d="M339 -12Q257 -12 192 28T89 145T52 328Q52 407 73 470T135 577T227 645T343 668Q402 668 448 644T523 587L478 536Q452 564 419 579T344 595Q283 595 237 563T164 471T138 330Q138 247 163 187T235 95T345 62Q391 62
427 79T494 131L538 82Q499 37 451 13T339 -12Z" />
<glyph unicode="D" horiz-adv-x="615" d="M90 0V656H254Q355 656 424 618T528 508T564 331Q564 227 529 153T425 39T258 0H90ZM173 68H248Q325 68 376 99T452 189T477 331Q477 413 452 471T376 558T248 588H173V68Z" />
<glyph unicode="E" horiz-adv-x="527" d="M90 0V656H468V586H173V380H422V309H173V71H478V0H90Z" />
<glyph unicode="F" horiz-adv-x="494" d="M90 0V656H468V586H173V364H423V294H173V0H90Z" />
<glyph unicode="G" horiz-adv-x="617" d="M348 -12Q261 -12 195 28T90 145T52 328Q52 407 74 470T137 577T233 645T353 668Q421 668 467 643T542 587L496 535Q472 561 439 578T355 595Q289 595 240 563T165 471T138 330Q138 247 163 187T237 94T356 61Q391 61
423 71T474 100V271H335V340H550V64Q519 31 467 10T348 -12Z" />
<glyph unicode="H" horiz-adv-x="652" d="M90 0V656H173V381H479V656H562V0H479V309H173V0H90Z" />
<glyph unicode="I" horiz-adv-x="263" d="M90 0V656H173V0H90Z" />
<glyph unicode="J" horiz-adv-x="479" d="M207 -12Q148 -12 104 14T33 94L89 131Q109 95 137 79T202 62Q256 62 282 94T309 203V656H392V195Q392 138 374 91T314 16T207 -12Z" />
<glyph unicode="K" horiz-adv-x="579" d="M90 0V656H173V327H176L449 656H543L338 406L575 0H482L286 341L173 208V0H90Z" />
<glyph unicode="L" horiz-adv-x="486" d="M90 0V656H173V71H460V0H90Z" />
<glyph unicode="M" horiz-adv-x="727" d="M90 0V656H195L319 305Q331 272 341 239T363 169H367Q378 206 388 239T409 305L533 656H637V0H559V361Q559 390 561 426T565 497T571 562H567L516 404L393 65H332L209 404L158 562H154Q157 533 159 498T164 426T166 361V0H90Z" />
<glyph unicode="N" horiz-adv-x="647" d="M90 0V656H181L414 248Q433 215 450 180T484 107H488Q485 158 481 211T477 315V656H557V0H466L233 408Q215 441 197 477T162 549H158Q162 500 165 448T169 343V0H90Z" />
<glyph unicode="O" horiz-adv-x="664" d="M332 -12Q250 -12 187 30T88 149T52 331Q52 436 87 511T186 627T332 668Q415 668 478 628T577 512T613 331Q613 226 577 149T478 30T332 -12ZM332 62Q391 62 434 95T502 188T526 331Q526 412 502 471T435 562T332 595Q274
595 230 563T162 471T138 331Q138 249 162 189T230 95T332 62Z" />
<glyph unicode="P" horiz-adv-x="566" d="M90 0V656H277Q351 656 406 638T492 577T523 463Q523 394 493 350T408 283T281 260H173V0H90ZM173 328H271Q357 328 398 361T440 463Q440 534 397 561T267 589H173V328Z" />
<glyph unicode="Q" horiz-adv-x="664" d="M332 -12Q250 -12 187 30T88 148T52 331Q52 436 87 511T186 627T332 668Q415 668 478 628T577 512T613 331Q613 225 577 149T478 30T332 -12ZM332 57Q391 57 434 90T502 185T526 331Q526 412 502 471T435 563T332 595Q274
595 230 563T162 472T138 331Q138 247 162 186T230 91T332 57ZM533 -165Q439 -165 376 -117T287 2L374 9Q387 -26 411 -49T469 -83T542 -95Q564 -95 581 -93T611 -86L627 -149Q612 -155 588 -160T533 -165Z" />
<glyph unicode="R" horiz-adv-x="569" d="M90 0V656H295Q362 656 414 639T495 581T525 472Q525 406 496 363T414 299T295 277H173V0H90ZM173 345H283Q360 345 401 376T442 472Q442 536 401 562T283 589H173V345ZM450 0L279 300L344 344L544 0H450Z" />
<glyph unicode="S" horiz-adv-x="534" d="M272 -12Q202 -12 144 14T42 86L89 140Q124 103 172 82T273 61Q338 61 374 90T410 168Q410 202 396 222T357 256T301 284L207 325Q175 339 145 360T94 413T74 494Q74 544 100 583T173 645T280 668Q340 668 390 646T474
589L429 535Q398 562 361 578T280 595Q225 595 192 569T158 499Q158 468 174 448T215 415T267 390L360 350Q399 333 429 311T477 256T495 175Q495 123 469 81T392 13T272 -12Z" />
<glyph unicode="T" horiz-adv-x="536" d="M226 0V585H28V656H508V585H310V0H226Z" />
<glyph unicode="U" horiz-adv-x="645" d="M323 -12Q272 -12 230 2T155 49T105 136T87 267V656H170V265Q170 188 190 144T245 81T323 62Q366 62 401 80T458 143T479 265V656H558V267Q558 190 541 136T491 50T416 3T323 -12Z" />
<glyph unicode="V" horiz-adv-x="515" d="M206 0L0 656H89L190 302Q202 262 212 228T232 159T254 85H258Q269 124 279 158T299 227T321 302L430 656H515L303 0H206Z" />
<glyph unicode="W" horiz-adv-x="786" d="M159 0L23 656H112L179 299Q189 246 198 193T215 84H219Q229 140 240 193T264 299L353 656H437L523 299Q535 247 547 194T570 84H574Q582 140 591 193T609 299L678 656H763L626 0H519L425 394Q417 431 410 468T395 548H391Q385
506 378 469T362 394L266 0H159Z" />
<glyph unicode="X" horiz-adv-x="513" d="M15 0L206 339L28 656H120L209 488Q222 466 233 444T260 393H264Q278 422 288 444T311 488L398 656H486L307 335L498 0H406L310 177Q297 201 284 226T254 282H250Q236 252 224 227T198 177L103 0H15Z" />
<glyph unicode="Y" horiz-adv-x="476" d="M196 0V254L-1 656H88L173 471Q188 435 203 400T236 328H240Q258 365 274 400T306 471L390 656H477L279 254V0H196Z" />
<glyph unicode="Z" horiz-adv-x="539" d="M45 0V50L390 586H76V656H494V607L148 71H497V0H45Z" />
<glyph unicode="[" horiz-adv-x="303" d="M94 -152V708H273V661H156V-105H273V-152H94Z" />
<glyph unicode="\" horiz-adv-x="350" d="M281 -160L14 710H73L340 -160H281Z" />
<glyph unicode="]" horiz-adv-x="303" d="M31 -152V-105H147V661H31V708H209V-152H31Z" />
<glyph unicode="^" horiz-adv-x="497" d="M60 284L212 670H285L437 284H365L300 460L251 593H247L197 460L132 284H60Z" />
<glyph unicode="_" horiz-adv-x="500" d="M12 -126V-71H488V-126H12Z" />
<glyph unicode="`" horiz-adv-x="542" d="M282 570L124 726L129 735H219L348 570H282Z" />
<glyph unicode="a" horiz-adv-x="504" d="M194 -12Q154 -12 122 4T70 51T51 126Q51 208 123 250T351 309Q350 339 342 367T311 412T250 429Q208 429 171 414T105 379L73 435Q95 450 125 464T190 488T264 498Q323 498 360 474T415 404T433 298V0H365L358 58H355Q320
29 280 9T194 -12ZM217 56Q253 56 284 72T351 119V250Q269 240 222 225T153 186T132 131Q132 91 157 74T217 56Z" />
<glyph unicode="b" horiz-adv-x="553" d="M297 -12Q263 -12 227 4T158 50H155L148 0H82V712H164V518L162 430Q195 459 234 478T314 498Q377 498 420 468T485 382T507 251Q507 168 478 109T400 19T297 -12ZM283 57Q323 57 354 80T404 146T422 250Q422 303 409 343T368
406T294 429Q264 429 232 413T164 363V108Q196 80 227 69T283 57Z" />
<glyph unicode="c" horiz-adv-x="456" d="M275 -12Q210 -12 158 18T76 105T46 242Q46 324 78 381T164 468T280 498Q328 498 362 482T422 441L381 390Q363 408 339 418T283 429Q240 429 206 406T151 340T131 242Q131 187 150 145T203 80T282 56Q316 56 345 69T395
102L431 52Q400 23 361 6T275 -12Z" />
<glyph unicode="d" horiz-adv-x="555" d="M248 -12Q156 -12 102 54T47 242Q47 321 76 378T154 467T258 498Q301 498 331 484T394 442L390 525V712H473V0H405L398 57H395Q367 29 329 9T248 -12ZM266 57Q300 57 330 74T390 124V378Q360 406 331 417T272 429Q233
429 202 406T151 341T132 243Q132 156 167 107T266 57Z" />
<glyph unicode="e" horiz-adv-x="496" d="M279 -12Q214 -12 161 18T76 105T45 243Q45 322 77 379T159 467T265 498Q327 498 370 470T436 390T458 270Q458 257 458 245T454 221H104V286H384Q384 356 354 393T266 431Q233 431 201 413T149 353T128 244Q128 182 149
140T208 77T289 55Q324 55 354 65T410 92L440 38Q408 16 369 2T279 -12Z" />
<glyph unicode="f" horiz-adv-x="292" d="M96 0V563Q96 612 111 648T157 704T238 724Q260 724 281 720T319 708L301 648Q272 657 246 657Q212 657 195 634T178 563V0H96ZM24 419V481L100 486H281V419H24Z" />
<glyph unicode="g" horiz-adv-x="504" d="M246 -224Q187 -224 142 -209T71 -164T45 -93Q45 -62 64 -34T116 17V21Q98 33 86 52T73 100Q73 131 90 154T126 190V194Q103 214 83 248T63 325Q63 378 88 417T155 477T246 498Q266 498 284 495T315 486H484V423H383V419Q401
403 412 379T424 322Q424 270 400 233T336 175T246 154Q228 154 209 158T173 171Q161 160 152 147T142 113Q142 90 160 75T228 60H322Q407 60 449 33T492 -56Q492 -101 462 -139T377 -200T246 -224ZM246 209Q274 209 297 223T335 264T349 325Q349 379 319 408T246
438Q203 438 173 409T143 325Q143 290 157 264T194 224T246 209ZM258 -167Q304 -167 338 -153T392 -116T412 -68Q412 -34 387 -21T314 -8H230Q216 -8 200 -6T167 0Q140 -19 129 -40T117 -82Q117 -121 154 -144T258 -167Z" />
<glyph unicode="h" horiz-adv-x="544" d="M82 0V712H164V518L161 418Q196 451 234 474T323 498Q400 498 435 450T471 308V0H389V297Q389 366 368 396T297 427Q260 427 231 408T164 352V0H82Z" />
<glyph unicode="i" horiz-adv-x="246" d="M82 0V486H164V0H82ZM123 586Q99 586 84 601T68 640Q68 664 83 679T123 694Q147 694 162 679T178 640Q178 616 163 601T123 586Z" />
<glyph unicode="j" horiz-adv-x="247" d="M32 -217Q11 -217 -8 -213T-40 -203L-23 -141Q-14 -144 -2 -147T23 -150Q59 -150 71 -125T83 -54V486H165V-55Q165 -104 152 -140T109 -197T32 -217ZM123 586Q99 586 84 601T68 640Q68 664 83 679T123 694Q147 694 162
679T178 640Q178 616 163 601T123 586Z" />
<glyph unicode="k" horiz-adv-x="495" d="M82 0V712H164V231H166L372 486H464L302 290L486 0H396L254 234L164 128V0H82Z" />
<glyph unicode="l" horiz-adv-x="255" d="M169 -9Q138 -9 119 3T91 40T82 100V712H164V94Q164 74 171 67T188 59Q192 59 195 59T205 61L217 -1Q208 -4 197 -6T169 -9Z" />
<glyph unicode="m" horiz-adv-x="829" d="M82 0V486H150L157 416H160Q192 450 229 474T311 498Q367 498 398 473T445 405Q483 447 522 472T605 498Q681 498 717 450T753 308V0H671V297Q671 366 649 396T581 427Q552 427 523 409T459 352V0H377V297Q377 366 355
396T286 427Q231 427 164 352V0H82Z" />
<glyph unicode="n" horiz-adv-x="547" d="M82 0V486H150L157 416H160Q195 451 234 474T323 498Q400 498 435 450T471 308V0H389V297Q389 366 368 396T297 427Q260 427 231 408T164 352V0H82Z" />
<glyph unicode="o" horiz-adv-x="542" d="M271 -12Q212 -12 161 18T78 105T46 242Q46 324 77 381T160 468T271 498Q331 498 382 468T464 381T496 242Q496 162 465 105T382 18T271 -12ZM271 56Q313 56 345 79T394 145T411 242Q411 298 394 340T345 406T271 430Q229
430 198 407T149 341T131 242Q131 187 148 145T197 80T271 56Z" />
<glyph unicode="p" horiz-adv-x="555" d="M82 -205V486H150L157 430H160Q193 458 233 478T315 498Q377 498 420 468T485 382T507 250Q507 168 478 109T400 19T297 -12Q264 -12 230 3T162 44L164 -41V-205H82ZM283 57Q323 57 354 80T404 146T422 250Q422 303 409
343T368 406T294 429Q264 429 232 413T164 363V108Q198 80 228 69T283 57Z" />
<glyph unicode="q" horiz-adv-x="555" d="M390 -205V-32L394 56Q365 28 328 8T248 -12Q156 -12 102 54T47 242Q47 321 76 378T154 467T258 498Q300 498 332 483T397 440H399L407 486H473V-205H390ZM266 57Q300 57 330 74T390 124V378Q360 406 331 417T272 429Q233
429 202 406T151 341T132 243Q132 156 167 107T266 57Z" />
<glyph unicode="r" horiz-adv-x="347" d="M82 0V486H150L157 398H160Q184 444 220 471T298 498Q314 498 326 496T350 488L332 418Q321 421 312 422T287 424Q256 424 223 399T164 312V0H82Z" />
<glyph unicode="s" horiz-adv-x="419" d="M209 -12Q156 -12 109 6T28 58L66 106Q98 80 132 66T212 52Q260 52 284 74T308 128Q308 153 292 169T251 197T198 219Q162 232 129 249T76 293T55 360Q55 419 99 458T223 498Q268 498 307 483T374 443L336 396Q310 414
283 424T223 434Q177 434 156 413T134 364Q134 342 147 328T183 302T237 281Q275 267 309 250T365 205T387 133Q387 93 367 61T307 8T209 -12Z" />
<glyph unicode="t" horiz-adv-x="338" d="M235 -9Q158 -9 127 36T96 153V419H24V481L100 486L110 642H179V486H311V419H179V152Q179 108 195 83T254 58Q267 58 281 60T309 70L327 12Q308 3 284 -3T235 -9Z" />
<glyph unicode="u" horiz-adv-x="544" d="M224 -12Q147 -12 112 36T76 178V486H158V189Q158 121 179 91T249 60Q286 60 315 79T380 141V486H462V0H394L387 76H384Q351 36 313 12T224 -12Z" />
<glyph unicode="v" horiz-adv-x="467" d="M187 0L12 486H97L189 210Q200 175 211 139T234 67H238Q248 102 260 138T282 210L374 486H455L283 0H187Z" />
<glyph unicode="w" horiz-adv-x="719" d="M159 0L24 486H110L181 205Q189 172 196 139T209 67H213Q221 106 228 139T244 205L316 486H406L479 205Q488 172 495 139T511 67H515Q523 106 530 139T544 205L615 486H695L564 0H457L392 260Q384 294 377 327T361 404H357Q350
361 343 327T326 260L261 0H159Z" />
<glyph unicode="x" horiz-adv-x="446" d="M14 0L173 254L26 486H115L180 379Q191 360 203 340T228 298H232Q243 319 254 339T276 379L335 486H421L274 245L432 0H343L272 113Q259 135 246 157T219 200H215Q202 179 190 158T166 113L100 0H14Z" />
<glyph unicode="y" horiz-adv-x="467" d="M90 -209Q74 -209 60 -206T33 -199L51 -135Q60 -138 69 -139T86 -141Q128 -141 154 -112T196 -37L207 -1L12 486H97L196 217Q208 186 220 150T243 80H247Q258 114 268 149T288 217L375 486H455L272 -40Q255 -88 231 -126T173
-187T90 -209Z" />
<glyph unicode="z" horiz-adv-x="425" d="M31 0V44L287 419H59V486H391V442L135 67H399V0H31Z" />
<glyph unicode="{" horiz-adv-x="303" d="M228 -152Q168 -152 140 -124T111 -19Q111 18 113 49T117 110T120 174Q120 203 103 227T34 252V304Q68 304 86 315T112 344T120 381Q120 415 118 445T113 507T111 575Q111 653 139 680T228 708H273V661H246Q206 661 192
640T178 570Q178 525 181 483T184 389Q184 340 171 315T124 280V276Q157 267 170 241T184 167Q184 117 181 75T178 -14Q178 -62 192 -83T246 -105H273V-152H228Z" />
<glyph unicode="|" horiz-adv-x="241" d="M92 -250V750H150V-250H92Z" />
<glyph unicode="}" horiz-adv-x="303" d="M31 -152V-105H57Q97 -105 111 -84T125 -14Q125 32 123 74T120 167Q120 215 133 241T179 276V280Q147 289 134 314T120 389Q120 440 122 482T125 570Q125 618 111 639T57 661H31V708H75Q135 708 163 681T192 575Q192 538
190 507T186 446T183 381Q183 362 190 345T216 316T269 304V252Q219 252 201 228T183 174Q183 140 185 110T190 49T192 -19Q192 -96 164 -124T75 -152H31Z" />
<glyph unicode="~" horiz-adv-x="497" d="M336 257Q307 257 284 270T240 299T200 328T159 341Q138 341 119 327T82 280L36 313Q64 361 96 382T161 403Q191 403 214 390T257 361T297 332T338 319Q360 319 379 333T415 380L461 346Q434 299 402 278T336 257Z" />
<glyph unicode="&#xa0;" horiz-adv-x="200" />
<glyph unicode="&#xa1;" horiz-adv-x="289" d="M103 -184L105 -90L116 288H173L184 -90L186 -184H103ZM145 372Q121 372 103 390T85 436Q85 463 103 480T145 498Q170 498 187 481T204 436Q204 408 187 390T145 372Z" />
<glyph unicode="&#xa2;" horiz-adv-x="497" d="M297 69Q228 69 175 97T92 179T61 310Q61 387 94 441T182 522T302 550Q351 550 385 533T445 492L405 440Q384 460 360 471T306 482Q257 482 220 461T163 401T143 310Q143 232 186 185T304 138Q339 138 367 152T418
185L454 133Q422 103 382 86T297 69ZM262 -33V653H314V-33H262Z" />
<glyph unicode="&#xa3;" horiz-adv-x="497" d="M54 0V50Q105 78 132 126T160 230Q160 271 148 310T123 388T111 466Q111 523 134 564T199 627T297 650Q351 650 389 628T452 572L407 530Q388 556 363 568T303 581Q250 581 221 548T192 464Q192 425 202 389T223
313T234 229Q234 177 218 142T172 75V71H453V0H54ZM53 285V337L120 341H375V285H53Z" />
<glyph unicode="&#xa4;" horiz-adv-x="497" d="M70 103L26 148L90 213Q73 236 64 265T54 329Q54 364 63 393T90 446L26 512L70 557L138 487Q187 524 249 524Q310 524 359 487L427 557L471 512L406 446Q423 423 433 394T443 329Q443 295 433 266T406 213L471 148L427
103L359 172Q336 153 307 144T249 134Q186 134 138 172L70 103ZM249 195Q281 195 308 212T351 259T367 329Q367 369 351 399T308 446T249 463Q216 463 190 446T147 399T130 329Q130 289 146 259T189 212T249 195Z" />
<glyph unicode="&#xa5;" horiz-adv-x="497" d="M207 0V151H45V203H207V270H45V323H186L23 638H110L187 467Q203 434 217 401T247 332H251Q268 367 283 400T312 467L390 638H474L310 323H452V270H289V203H452V151H289V0H207Z" />
<glyph unicode="&#xa6;" horiz-adv-x="241" d="M92 291V750H150V291H92ZM92 -250V214H150V-250H92Z" />
<glyph unicode="&#xa7;" horiz-adv-x="497" d="M236 -64Q183 -64 139 -45T63 7L113 52Q138 28 167 14T236 0Q276 0 298 20T321 69Q321 97 302 116T251 149T184 179T117 214T65 266T45 343Q45 393 76 428T155 484L194 443Q159 426 138 405T117 348Q117 315 137
293T189 255T257 224T324 190T376 143T397 73Q397 33 376 3T319 -46T236 -64ZM342 141L297 183Q337 199 358 219T380 278Q380 313 360 335T307 374T239 405T172 438T120 485T99 554Q99 588 116 618T167 666T251 684Q298 684 337 667T405 627L365 574Q341 594 314
607T254 620Q212 620 194 602T175 557Q175 530 195 512T246 480T313 450T379 413T431 361T452 284Q452 248 438 222T399 176T342 141Z" />
<glyph unicode="&#xa8;" horiz-adv-x="542" d="M175 587Q154 587 140 601T125 637Q125 658 139 672T175 687Q196 687 210 673T224 637Q224 616 210 602T175 587ZM367 587Q346 587 332 601T318 637Q318 658 332 672T367 687Q389 687 403 673T417 637Q417 616 403
602T367 587Z" />
<glyph unicode="&#xa9;" horiz-adv-x="744" d="M372 -11Q307 -11 249 12T145 79T75 185T49 323Q49 400 74 461T145 565T248 630T372 653Q438 653 496 630T599 565T669 461T695 323Q695 247 670 185T599 80T496 13T372 -11ZM372 31Q429 31 479 52T567 111T626 204T648
323Q648 389 627 442T567 533T479 591T372 612Q315 612 265 592T177 533T118 442T96 323Q96 258 117 204T177 112T265 52T372 31ZM380 129Q329 129 288 152T223 217T198 320Q198 380 224 424T292 491T383 515Q425 515 456 499T509 457L473 420Q456 440 435 450T386
460Q350 460 323 443T280 393T264 320Q264 258 296 221T383 184Q418 184 439 195T482 227L514 187Q488 161 457 145T380 129Z" />
<glyph unicode="&#xaa;" horiz-adv-x="345" d="M136 386Q92 386 65 412T38 481Q38 535 85 563T236 601Q235 633 222 652T174 672Q148 672 121 662T73 638L49 681Q74 697 109 710T183 724Q243 724 270 689T298 591V395H248L241 432H237Q217 414 192 400T136 386ZM155
437Q175 437 194 446T236 476V559Q160 550 130 531T100 485Q100 461 114 449T155 437Z" />
<glyph unicode="&#xab;" horiz-adv-x="429" d="M181 66L45 221V283L181 438L217 408L99 252L217 94L181 66ZM339 66L203 221V283L339 438L375 408L257 252L375 94L339 66Z" />
<glyph unicode="&#xac;" horiz-adv-x="497" d="M397 104V299H34V361H463V104H397Z" />
<glyph unicode="&#xad;" horiz-adv-x="311" d="M41 219V282H271V219H41Z" />
<glyph unicode="&#xae;" horiz-adv-x="423" d="M211 319Q160 319 117 344T49 413T23 516Q23 574 48 618T117 688T211 713Q263 713 306 688T374 619T400 516Q400 457 375 413T306 344T211 319ZM211 356Q253 356 287 376T340 432T360 516Q360 563 341 599T287 656T211
677Q169 677 136 657T83 600T63 516Q63 469 82 433T135 376T211 356ZM139 417V620H215Q247 620 270 606T293 555Q293 537 283 522T256 500L302 417H256L221 487H180V417H139ZM180 519H206Q226 519 237 527T249 553Q249 568 240 577T208 586H180V519Z" />
<glyph unicode="&#xaf;" horiz-adv-x="542" d="M138 601V658H404V601H138Z" />
<glyph unicode="&#xb0;" horiz-adv-x="331" d="M166 429Q132 429 104 444T58 489T41 556Q41 595 58 624T103 669T166 685Q200 685 228 669T273 624T291 556Q291 518 274 489T228 445T166 429ZM166 475Q199 475 220 498T241 556Q241 593 220 616T166 639Q133 639
112 616T91 556Q91 521 112 498T166 475Z" />
<glyph unicode="&#xb1;" horiz-adv-x="497" d="M216 133V306H34V368H216V556H281V368H463V306H281V133H216ZM34 0V62H463V0H34Z" />
<glyph unicode="&#xb2;" horiz-adv-x="367" d="M52 395V432Q113 486 154 526T216 599T237 661Q237 699 217 721T162 743Q137 743 116 727T78 686L40 721Q63 755 97 776T170 797Q229 797 264 765T300 671Q300 633 281 599T230 528T155 450H320V395H52Z" />
<glyph unicode="&#xb3;" horiz-adv-x="367" d="M180 383Q133 383 96 405T35 459L78 492Q96 465 121 450T177 434Q209 434 232 452T255 504Q255 538 223 555T134 573V614Q184 614 212 634T240 684Q240 713 221 729T169 746Q147 746 127 733T90 699L51 733Q77 762
107 779T179 797Q212 797 241 785T286 749T303 692Q303 658 284 634T235 596Q268 588 293 564T319 500Q319 464 300 438T250 397T180 383Z" />
<glyph unicode="&#xb4;" horiz-adv-x="542" d="M194 570L323 735H413L418 726L260 570H194Z" />
<glyph unicode="&#xb5;" horiz-adv-x="562" d="M82 -179V486H164V189Q164 125 185 92T253 59Q275 59 296 66T338 93T382 154V486H465Q464 420 463 353T460 221T459 98Q459 77 469 68T495 59Q502 59 509 60T524 65L535 2Q524 -2 511 -5T477 -9Q436 -9 415 13T389
82H387Q360 36 326 13T252 -10Q223 -10 199 -1T158 37Q158 -11 159 -45T161 -109T165 -179H82Z" />
<glyph unicode="&#xb6;" horiz-adv-x="560" d="M380 -80V656H464V-80H380ZM293 226Q220 226 163 249T74 320T41 443Q41 521 72 568T158 635T282 656H326V226H293Z" />
<glyph unicode="&#xb7;" horiz-adv-x="249" d="M125 259Q101 259 83 276T65 321Q65 350 83 367T125 385Q150 385 167 368T184 321Q184 294 167 277T125 259Z" />
<glyph unicode="&#xb8;" horiz-adv-x="542" d="M190 -226L182 -186Q245 -181 268 -170T291 -136Q291 -116 274 -105T214 -88L258 3H311L282 -64Q317 -72 336 -88T355 -135Q355 -178 313 -200T190 -226Z" />
<glyph unicode="&#xb9;" horiz-adv-x="367" d="M172 395V703H87V745Q120 751 142 760T184 785H236V395H172Z" />
<glyph unicode="&#xba;" horiz-adv-x="365" d="M182 387Q141 387 107 407T51 464T30 555Q30 609 51 646T106 704T182 724Q223 724 257 704T313 647T334 555Q334 502 313 465T258 407T182 387ZM182 438Q223 438 246 470T270 555Q270 609 247 641T182 673Q140 673
117 641T93 555Q93 503 116 471T182 438Z" />
<glyph unicode="&#xbb;" horiz-adv-x="429" d="M89 66L54 94L172 252L54 408L89 438L226 283V221L89 66ZM247 66L212 94L330 252L212 408L247 438L384 283V221L247 66Z" />
<glyph unicode="&#xbc;" horiz-adv-x="781" d="M148 266V574H63V616Q96 622 118 631T160 656H212V266H148ZM180 -12L542 668H598L236 -12H180ZM633 0V220L637 329H633L583 248L522 150H749V104H455V137L619 390H691V0H633Z" />
<glyph unicode="&#xbd;" horiz-adv-x="808" d="M148 266V574H63V616Q96 622 118 631T160 656H212V266H148ZM160 -12L522 668H578L216 -12H160ZM493 0V37Q554 91 595 131T657 204T678 266Q678 304 658 326T603 348Q578 348 557 332T519 291L481 326Q504 360 538
381T611 402Q670 402 705 370T741 276Q741 238 722 204T671 133T596 55H761V0H493Z" />
<glyph unicode="&#xbe;" horiz-adv-x="796" d="M179 254Q132 254 95 276T34 330L77 363Q95 336 120 321T176 305Q208 305 231 323T254 375Q254 409 222 426T133 444V485Q183 485 211 505T239 555Q239 584 220 600T168 617Q146 617 126 604T89 570L50 604Q76 633
106 650T178 668Q211 668 240 656T285 620T302 563Q302 529 283 505T234 467Q267 459 292 435T318 371Q318 335 299 309T249 268T179 254ZM218 -12L580 668H636L274 -12H218ZM648 0V220L652 329H648L598 248L537 150H764V104H470V137L634 390H706V0H648Z" />
<glyph unicode="&#xbf;" horiz-adv-x="425" d="M215 -196Q165 -196 127 -177T69 -121T48 -36Q48 3 64 34T103 94T149 151T184 213T192 288H265Q272 241 260 205T227 139T183 82T144 28T128 -31Q128 -58 139 -80T171 -114T225 -127Q258 -127 287 -112T339 -70L387
-113Q355 -148 313 -172T215 -196ZM227 372Q203 372 185 390T167 436Q167 463 185 480T227 498Q252 498 269 481T286 436Q286 408 269 390T227 372Z" />
<glyph unicode="&#xc0;" horiz-adv-x="544" d="M3 0L225 656H319L541 0H453L338 367Q320 422 304 476T272 588H268Q253 531 237 477T203 367L87 0H3ZM119 200V266H422V200H119ZM274 706L111 832L115 841H216L348 706H274Z" />
<glyph unicode="&#xc1;" horiz-adv-x="544" d="M3 0L225 656H319L541 0H453L338 367Q320 422 304 476T272 588H268Q253 531 237 477T203 367L87 0H3ZM119 200V266H422V200H119ZM194 706L326 841H427L431 832L268 706H194Z" />
<glyph unicode="&#xc2;" horiz-adv-x="544" d="M3 0L225 656H319L541 0H453L338 367Q320 422 304 476T272 588H268Q253 531 237 477T203 367L87 0H3ZM119 200V266H422V200H119ZM95 706L232 841H310L447 706H377L273 787H269L165 706H95Z" />
<glyph unicode="&#xc3;" horiz-adv-x="544" d="M3 0L225 656H319L541 0H453L338 367Q320 422 304 476T272 588H268Q253 531 237 477T203 367L87 0H3ZM119 200V266H422V200H119ZM346 709Q318 709 298 719T262 744T231 769T198 780Q179 780 166 763T150 714L94 718Q97
776 124 808T196 841Q224 841 244 830T281 806T311 781T344 770Q363 770 376 787T392 836L448 832Q446 774 419 742T346 709Z" />
<glyph unicode="&#xc4;" horiz-adv-x="544" d="M3 0L225 656H319L541 0H453L338 367Q320 422 304 476T272 588H268Q253 531 237 477T203 367L87 0H3ZM119 200V266H422V200H119ZM168 715Q148 715 134 729T119 764Q119 786 133 799T168 813Q190 813 203 800T217
764Q217 743 204 729T168 715ZM374 715Q353 715 339 729T325 764Q325 786 339 799T374 813Q395 813 409 800T423 764Q423 743 409 729T374 715Z" />
<glyph unicode="&#xc5;" horiz-adv-x="544" d="M3 0L225 656H319L541 0H453L338 367Q320 422 304 476T272 588H268Q253 531 237 477T203 367L87 0H3ZM119 200V266H422V200H119ZM271 699Q221 699 191 723T160 789Q160 831 190 855T271 880Q322 880 352 856T382
789Q382 748 352 724T271 699ZM271 735Q296 735 312 749T328 789Q328 816 312 830T271 844Q247 844 231 830T214 789Q214 763 230 749T271 735Z" />
<glyph unicode="&#xc6;" horiz-adv-x="822" d="M8 0L352 656H763V586H485V380H717V309H485V71H773V0H401V590H397Q371 537 344 483T290 376L96 0H8ZM158 191V258H452V191H158Z" />
<glyph unicode="&#xc7;" horiz-adv-x="571" d="M339 -12Q257 -12 192 28T89 145T52 328Q52 407 73 470T135 577T227 645T343 668Q402 668 448 644T523 587L478 536Q452 564 419 579T344 595Q283 595 237 563T164 471T138 330Q138 247 163 187T235 95T345 62Q391
62 427 79T494 131L538 82Q499 37 451 13T339 -12ZM257 -226L249 -186Q312 -181 335 -170T358 -136Q358 -116 341 -105T281 -88L325 3H378L349 -64Q384 -72 403 -88T422 -135Q422 -178 380 -200T257 -226Z" />
<glyph unicode="&#xc8;" horiz-adv-x="527" d="M90 0V656H468V586H173V380H422V309H173V71H478V0H90ZM293 706L130 832L134 841H235L367 706H293Z" />
<glyph unicode="&#xc9;" horiz-adv-x="527" d="M90 0V656H468V586H173V380H422V309H173V71H478V0H90ZM213 706L345 841H446L450 832L287 706H213Z" />
<glyph unicode="&#xca;" horiz-adv-x="527" d="M90 0V656H468V586H173V380H422V309H173V71H478V0H90ZM114 706L251 841H329L466 706H396L292 787H288L184 706H114Z" />
<glyph unicode="&#xcb;" horiz-adv-x="527" d="M90 0V656H468V586H173V380H422V309H173V71H478V0H90ZM187 715Q167 715 153 729T138 764Q138 786 152 799T187 813Q209 813 222 800T236 764Q236 743 223 729T187 715ZM393 715Q372 715 358 729T344 764Q344 786
358 799T393 813Q414 813 428 800T442 764Q442 743 428 729T393 715Z" />
<glyph unicode="&#xcc;" horiz-adv-x="263" d="M90 0V656H173V0H90ZM135 706L-28 832L-24 841H77L209 706H135Z" />
<glyph unicode="&#xcd;" horiz-adv-x="263" d="M90 0V656H173V0H90ZM55 706L187 841H288L292 832L129 706H55Z" />
<glyph unicode="&#xce;" horiz-adv-x="263" d="M90 0V656H173V0H90ZM-44 706L93 841H171L308 706H238L134 787H130L26 706H-44Z" />
<glyph unicode="&#xcf;" horiz-adv-x="263" d="M90 0V656H173V0H90ZM29 715Q9 715 -5 729T-20 764Q-20 786 -6 799T29 813Q51 813 64 800T78 764Q78 743 65 729T29 715ZM235 715Q214 715 200 729T186 764Q186 786 200 799T235 813Q256 813 270 800T284 764Q284
743 270 729T235 715Z" />
<glyph unicode="&#xd0;" horiz-adv-x="639" d="M27 313V373L115 378H346V313H27ZM113 0V656H278Q379 656 447 618T551 508T587 331Q587 227 552 153T449 39T281 0H113ZM197 68H271Q348 68 399 99T475 189T501 331Q501 413 476 471T399 558T271 588H197V68Z" />
<glyph unicode="&#xd1;" horiz-adv-x="647" d="M90 0V656H181L414 248Q433 215 450 180T484 107H488Q485 158 481 211T477 315V656H557V0H466L233 408Q215 441 197 477T162 549H158Q162 500 165 448T169 343V0H90ZM409 709Q381 709 361 719T325 744T294 769T261
780Q242 780 229 763T213 714L157 718Q160 776 187 808T259 841Q287 841 307 830T344 806T374 781T407 770Q426 770 439 787T455 836L511 832Q509 774 482 742T409 709Z" />
<glyph unicode="&#xd2;" horiz-adv-x="664" d="M332 -12Q250 -12 187 30T88 149T52 331Q52 436 87 511T186 627T332 668Q415 668 478 628T577 512T613 331Q613 226 577 149T478 30T332 -12ZM332 62Q391 62 434 95T502 188T526 331Q526 412 502 471T435 562T332
595Q274 595 230 563T162 471T138 331Q138 249 162 189T230 95T332 62ZM335 706L172 832L176 841H277L409 706H335Z" />
<glyph unicode="&#xd3;" horiz-adv-x="664" d="M332 -12Q250 -12 187 30T88 149T52 331Q52 436 87 511T186 627T332 668Q415 668 478 628T577 512T613 331Q613 226 577 149T478 30T332 -12ZM332 62Q391 62 434 95T502 188T526 331Q526 412 502 471T435 562T332
595Q274 595 230 563T162 471T138 331Q138 249 162 189T230 95T332 62ZM255 706L387 841H488L492 832L329 706H255Z" />
<glyph unicode="&#xd4;" horiz-adv-x="664" d="M332 -12Q250 -12 187 30T88 149T52 331Q52 436 87 511T186 627T332 668Q415 668 478 628T577 512T613 331Q613 226 577 149T478 30T332 -12ZM332 62Q391 62 434 95T502 188T526 331Q526 412 502 471T435 562T332
595Q274 595 230 563T162 471T138 331Q138 249 162 189T230 95T332 62ZM156 706L293 841H371L508 706H438L334 787H330L226 706H156Z" />
<glyph unicode="&#xd5;" horiz-adv-x="664" d="M332 -12Q250 -12 187 30T88 149T52 331Q52 436 87 511T186 627T332 668Q415 668 478 628T577 512T613 331Q613 226 577 149T478 30T332 -12ZM332 62Q391 62 434 95T502 188T526 331Q526 412 502 471T435 562T332
595Q274 595 230 563T162 471T138 331Q138 249 162 189T230 95T332 62ZM407 709Q379 709 359 719T323 744T292 769T259 780Q240 780 227 763T211 714L155 718Q158 776 185 808T257 841Q285 841 305 830T342 806T372 781T405 770Q424 770 437 787T453 836L509 832Q507
774 480 742T407 709Z" />
<glyph unicode="&#xd6;" horiz-adv-x="664" d="M332 -12Q250 -12 187 30T88 149T52 331Q52 436 87 511T186 627T332 668Q415 668 478 628T577 512T613 331Q613 226 577 149T478 30T332 -12ZM332 62Q391 62 434 95T502 188T526 331Q526 412 502 471T435 562T332
595Q274 595 230 563T162 471T138 331Q138 249 162 189T230 95T332 62ZM229 715Q209 715 195 729T180 764Q180 786 194 799T229 813Q251 813 264 800T278 764Q278 743 265 729T229 715ZM435 715Q414 715 400 729T386 764Q386 786 400 799T435 813Q456 813 470 800T484
764Q484 743 470 729T435 715Z" />
<glyph unicode="&#xd7;" horiz-adv-x="497" d="M94 126L50 171L205 330L50 488L94 533L249 374L403 533L447 488L292 330L447 171L403 126L249 286L94 126Z" />
<glyph unicode="&#xd8;" horiz-adv-x="664" d="M98 -32L48 8L570 689L622 648L98 -32ZM335 -12Q252 -12 189 30T90 149T54 331Q54 436 90 511T189 627T335 668Q418 668 481 628T580 512T616 331Q616 226 580 149T481 30T335 -12ZM335 62Q394 62 437 95T504 188T529
331Q529 412 505 471T437 562T335 595Q276 595 233 563T165 471T141 331Q141 249 165 189T232 95T335 62Z" />
<glyph unicode="&#xd9;" horiz-adv-x="645" d="M323 -12Q272 -12 230 2T155 49T105 136T87 267V656H170V265Q170 188 190 144T245 81T323 62Q366 62 401 80T458 143T479 265V656H558V267Q558 190 541 136T491 50T416 3T323 -12ZM325 706L162 832L166 841H267L399
706H325Z" />
<glyph unicode="&#xda;" horiz-adv-x="645" d="M323 -12Q272 -12 230 2T155 49T105 136T87 267V656H170V265Q170 188 190 144T245 81T323 62Q366 62 401 80T458 143T479 265V656H558V267Q558 190 541 136T491 50T416 3T323 -12ZM245 706L377 841H478L482 832L319
706H245Z" />
<glyph unicode="&#xdb;" horiz-adv-x="645" d="M323 -12Q272 -12 230 2T155 49T105 136T87 267V656H170V265Q170 188 190 144T245 81T323 62Q366 62 401 80T458 143T479 265V656H558V267Q558 190 541 136T491 50T416 3T323 -12ZM146 706L283 841H361L498 706H428L324
787H320L216 706H146Z" />
<glyph unicode="&#xdc;" horiz-adv-x="645" d="M323 -12Q272 -12 230 2T155 49T105 136T87 267V656H170V265Q170 188 190 144T245 81T323 62Q366 62 401 80T458 143T479 265V656H558V267Q558 190 541 136T491 50T416 3T323 -12ZM219 715Q199 715 185 729T170 764Q170
786 184 799T219 813Q241 813 254 800T268 764Q268 743 255 729T219 715ZM425 715Q404 715 390 729T376 764Q376 786 390 799T425 813Q446 813 460 800T474 764Q474 743 460 729T425 715Z" />
<glyph unicode="&#xdd;" horiz-adv-x="476" d="M196 0V254L-1 656H88L173 471Q188 435 203 400T236 328H240Q258 365 274 400T306 471L390 656H477L279 254V0H196ZM161 706L293 841H394L398 832L235 706H161Z" />
<glyph unicode="&#xde;" horiz-adv-x="583" d="M90 0V656H173V546H291Q364 546 418 528T503 467T533 353Q533 284 503 239T418 172T291 150H173V0H90ZM173 218H281Q367 218 408 250T450 353Q450 424 408 451T281 478H173V218Z" />
<glyph unicode="&#xdf;" horiz-adv-x="576" d="M387 -12Q347 -12 313 0T247 39L278 89Q304 69 330 61T385 52Q427 52 448 76T469 132Q469 161 456 180T422 213T377 239T332 267T297 306T284 364Q284 398 298 422T332 468T365 513T380 568Q380 606 356 631T287
656Q231 656 198 617T164 498V0H82V514Q82 577 107 624T177 696T288 722Q342 722 381 703T440 650T461 576Q461 539 446 512T412 464T377 421T362 374Q362 350 375 334T409 305T454 280T499 249T534 205T547 137Q547 95 528 62T472 8T387 -12Z" />
<glyph unicode="&#xe0;" horiz-adv-x="504" d="M194 -12Q154 -12 122 4T70 51T51 126Q51 208 123 250T351 309Q350 339 342 367T311 412T250 429Q208 429 171 414T105 379L73 435Q95 450 125 464T190 488T264 498Q323 498 360 474T415 404T433 298V0H365L358 58H355Q320
29 280 9T194 -12ZM217 56Q253 56 284 72T351 119V250Q269 240 222 225T153 186T132 131Q132 91 157 74T217 56ZM278 570L120 726L125 735H215L344 570H278Z" />
<glyph unicode="&#xe1;" horiz-adv-x="504" d="M194 -12Q154 -12 122 4T70 51T51 126Q51 208 123 250T351 309Q350 339 342 367T311 412T250 429Q208 429 171 414T105 379L73 435Q95 450 125 464T190 488T264 498Q323 498 360 474T415 404T433 298V0H365L358 58H355Q320
29 280 9T194 -12ZM217 56Q253 56 284 72T351 119V250Q269 240 222 225T153 186T132 131Q132 91 157 74T217 56ZM190 570L319 735H409L414 726L256 570H190Z" />
<glyph unicode="&#xe2;" horiz-adv-x="504" d="M194 -12Q154 -12 122 4T70 51T51 126Q51 208 123 250T351 309Q350 339 342 367T311 412T250 429Q208 429 171 414T105 379L73 435Q95 450 125 464T190 488T264 498Q323 498 360 474T415 404T433 298V0H365L358 58H355Q320
29 280 9T194 -12ZM217 56Q253 56 284 72T351 119V250Q269 240 222 225T153 186T132 131Q132 91 157 74T217 56ZM95 570L231 735H303L439 570H372L269 673H265L162 570H95Z" />
<glyph unicode="&#xe3;" horiz-adv-x="504" d="M194 -12Q154 -12 122 4T70 51T51 126Q51 208 123 250T351 309Q350 339 342 367T311 412T250 429Q208 429 171 414T105 379L73 435Q95 450 125 464T190 488T264 498Q323 498 360 474T415 404T433 298V0H365L358 58H355Q320
29 280 9T194 -12ZM217 56Q253 56 284 72T351 119V250Q269 240 222 225T153 186T132 131Q132 91 157 74T217 56ZM339 577Q313 577 294 589T258 619T228 648T196 661Q174 661 163 640T149 582L94 585Q95 625 106 655T138 703T195 721Q222 721 241 709T276 679T306
650T339 637Q361 637 372 659T385 716L440 712Q439 674 428 644T396 595T339 577Z" />
<glyph unicode="&#xe4;" horiz-adv-x="504" d="M194 -12Q154 -12 122 4T70 51T51 126Q51 208 123 250T351 309Q350 339 342 367T311 412T250 429Q208 429 171 414T105 379L73 435Q95 450 125 464T190 488T264 498Q323 498 360 474T415 404T433 298V0H365L358 58H355Q320
29 280 9T194 -12ZM217 56Q253 56 284 72T351 119V250Q269 240 222 225T153 186T132 131Q132 91 157 74T217 56ZM171 587Q150 587 136 601T121 637Q121 658 135 672T171 687Q192 687 206 673T220 637Q220 616 206 602T171 587ZM363 587Q342 587 328 601T314 637Q314
658 328 672T363 687Q385 687 399 673T413 637Q413 616 399 602T363 587Z" />
<glyph unicode="&#xe5;" horiz-adv-x="504" d="M194 -12Q154 -12 122 4T70 51T51 126Q51 208 123 250T351 309Q350 339 342 367T311 412T250 429Q208 429 171 414T105 379L73 435Q95 450 125 464T190 488T264 498Q323 498 360 474T415 404T433 298V0H365L358 58H355Q320
29 280 9T194 -12ZM217 56Q253 56 284 72T351 119V250Q269 240 222 225T153 186T132 131Q132 91 157 74T217 56ZM267 554Q217 554 187 582T157 653Q157 695 187 723T267 751Q318 751 347 723T377 653Q377 610 348 582T267 554ZM267 591Q291 591 307 608T324 653Q324
681 308 697T267 714Q243 714 227 698T210 653Q210 625 227 608T267 591Z" />
<glyph unicode="&#xe6;" horiz-adv-x="778" d="M194 -12Q154 -12 122 4T70 51T51 126Q51 208 123 250T346 309Q346 340 338 367T308 412T246 429Q208 429 171 414T105 379L73 435Q95 450 124 464T186 488T256 498Q310 498 346 470T396 395Q424 442 464 470T555
498Q616 498 657 470T720 390T741 269Q741 256 740 244T737 221H423Q425 171 445 134T498 76T574 55Q609 55 638 64T693 92L722 38Q690 16 652 2T564 -12Q523 -12 492 0T436 34T392 79Q343 35 292 12T194 -12ZM217 56Q251 56 291 74T364 128Q356 148 352 174T346
228L345 250Q230 236 182 208T134 131Q134 91 158 74T217 56ZM424 284H666Q666 357 636 394T553 431Q520 431 493 413T447 361T424 284Z" />
<glyph unicode="&#xe7;" horiz-adv-x="456" d="M275 -12Q210 -12 158 18T76 105T46 242Q46 324 78 381T164 468T280 498Q328 498 362 482T422 441L381 390Q363 408 339 418T283 429Q240 429 206 406T151 340T131 242Q131 187 150 145T203 80T282 56Q316 56 345
69T395 102L431 52Q400 23 361 6T275 -12ZM179 -226L171 -186Q234 -181 257 -170T280 -136Q280 -116 263 -105T203 -88L247 3H300L271 -64Q306 -72 325 -88T344 -135Q344 -178 302 -200T179 -226Z" />
<glyph unicode="&#xe8;" horiz-adv-x="496" d="M279 -12Q214 -12 161 18T76 105T45 243Q45 322 77 379T159 467T265 498Q327 498 370 470T436 390T458 270Q458 257 458 245T454 221H104V286H384Q384 356 354 393T266 431Q233 431 201 413T149 353T128 244Q128
182 149 140T208 77T289 55Q324 55 354 65T410 92L440 38Q408 16 369 2T279 -12ZM275 570L117 726L122 735H212L341 570H275Z" />
<glyph unicode="&#xe9;" horiz-adv-x="496" d="M279 -12Q214 -12 161 18T76 105T45 243Q45 322 77 379T159 467T265 498Q327 498 370 470T436 390T458 270Q458 257 458 245T454 221H104V286H384Q384 356 354 393T266 431Q233 431 201 413T149 353T128 244Q128
182 149 140T208 77T289 55Q324 55 354 65T410 92L440 38Q408 16 369 2T279 -12ZM187 570L316 735H406L411 726L253 570H187Z" />
<glyph unicode="&#xea;" horiz-adv-x="496" d="M279 -12Q214 -12 161 18T76 105T45 243Q45 322 77 379T159 467T265 498Q327 498 370 470T436 390T458 270Q458 257 458 245T454 221H104V286H384Q384 356 354 393T266 431Q233 431 201 413T149 353T128 244Q128
182 149 140T208 77T289 55Q324 55 354 65T410 92L440 38Q408 16 369 2T279 -12ZM92 570L228 735H300L436 570H369L266 673H262L159 570H92Z" />
<glyph unicode="&#xeb;" horiz-adv-x="496" d="M279 -12Q214 -12 161 18T76 105T45 243Q45 322 77 379T159 467T265 498Q327 498 370 470T436 390T458 270Q458 257 458 245T454 221H104V286H384Q384 356 354 393T266 431Q233 431 201 413T149 353T128 244Q128
182 149 140T208 77T289 55Q324 55 354 65T410 92L440 38Q408 16 369 2T279 -12ZM168 587Q147 587 133 601T118 637Q118 658 132 672T168 687Q189 687 203 673T217 637Q217 616 203 602T168 587ZM360 587Q339 587 325 601T311 637Q311 658 325 672T360 687Q382
687 396 673T410 637Q410 616 396 602T360 587Z" />
<glyph unicode="&#xec;" horiz-adv-x="246" d="M82 0V486H164V0H82ZM134 570L-24 726L-19 735H71L200 570H134Z" />
<glyph unicode="&#xed;" horiz-adv-x="246" d="M82 0V486H164V0H82ZM46 570L175 735H265L270 726L112 570H46Z" />
<glyph unicode="&#xee;" horiz-adv-x="246" d="M82 0V486H164V0H82ZM-49 570L87 735H159L295 570H228L125 673H121L18 570H-49Z" />
<glyph unicode="&#xef;" horiz-adv-x="246" d="M82 0V486H164V0H82ZM27 587Q6 587 -8 601T-23 637Q-23 658 -9 672T27 687Q48 687 62 673T76 637Q76 616 62 602T27 587ZM219 587Q198 587 184 601T170 637Q170 658 184 672T219 687Q241 687 255 673T269 637Q269
616 255 602T219 587Z" />
<glyph unicode="&#xf0;" horiz-adv-x="544" d="M269 -12Q213 -12 164 16T84 97T53 222Q53 290 80 340T155 419T260 447Q304 447 343 426T408 358L409 302Q375 351 341 367T271 383Q227 383 196 362T148 305T131 222Q131 172 150 135T201 77T271 56Q316 56 346
81T391 150T406 254Q406 342 385 408T324 525T229 612T105 679L141 731Q210 703 272 663T382 567T457 434T485 257Q485 177 458 117T383 22T269 -12ZM131 493L102 548L434 720L466 665L131 493Z" />
<glyph unicode="&#xf1;" horiz-adv-x="547" d="M82 0V486H150L157 416H160Q195 451 234 474T323 498Q400 498 435 450T471 308V0H389V297Q389 366 368 396T297 427Q260 427 231 408T164 352V0H82ZM367 577Q341 577 322 589T286 619T256 648T224 661Q202 661 191
640T177 582L122 585Q123 625 134 655T166 703T223 721Q250 721 269 709T304 679T334 650T367 637Q389 637 400 659T413 716L468 712Q467 674 456 644T424 595T367 577Z" />
<glyph unicode="&#xf2;" horiz-adv-x="542" d="M271 -12Q212 -12 161 18T78 105T46 242Q46 324 77 381T160 468T271 498Q331 498 382 468T464 381T496 242Q496 162 465 105T382 18T271 -12ZM271 56Q313 56 345 79T394 145T411 242Q411 298 394 340T345 406T271
430Q229 430 198 407T149 341T131 242Q131 187 148 145T197 80T271 56ZM282 570L124 726L129 735H219L348 570H282Z" />
<glyph unicode="&#xf3;" horiz-adv-x="542" d="M271 -12Q212 -12 161 18T78 105T46 242Q46 324 77 381T160 468T271 498Q331 498 382 468T464 381T496 242Q496 162 465 105T382 18T271 -12ZM271 56Q313 56 345 79T394 145T411 242Q411 298 394 340T345 406T271
430Q229 430 198 407T149 341T131 242Q131 187 148 145T197 80T271 56ZM194 570L323 735H413L418 726L260 570H194Z" />
<glyph unicode="&#xf4;" horiz-adv-x="542" d="M271 -12Q212 -12 161 18T78 105T46 242Q46 324 77 381T160 468T271 498Q331 498 382 468T464 381T496 242Q496 162 465 105T382 18T271 -12ZM271 56Q313 56 345 79T394 145T411 242Q411 298 394 340T345 406T271
430Q229 430 198 407T149 341T131 242Q131 187 148 145T197 80T271 56ZM99 570L235 735H307L443 570H376L273 673H269L166 570H99Z" />
<glyph unicode="&#xf5;" horiz-adv-x="542" d="M271 -12Q212 -12 161 18T78 105T46 242Q46 324 77 381T160 468T271 498Q331 498 382 468T464 381T496 242Q496 162 465 105T382 18T271 -12ZM271 56Q313 56 345 79T394 145T411 242Q411 298 394 340T345 406T271
430Q229 430 198 407T149 341T131 242Q131 187 148 145T197 80T271 56ZM343 577Q317 577 298 589T262 619T232 648T200 661Q178 661 167 640T153 582L98 585Q99 625 110 655T142 703T199 721Q226 721 245 709T280 679T310 650T343 637Q365 637 376 659T389 716L444
712Q443 674 432 644T400 595T343 577Z" />
<glyph unicode="&#xf6;" horiz-adv-x="542" d="M271 -12Q212 -12 161 18T78 105T46 242Q46 324 77 381T160 468T271 498Q331 498 382 468T464 381T496 242Q496 162 465 105T382 18T271 -12ZM271 56Q313 56 345 79T394 145T411 242Q411 298 394 340T345 406T271
430Q229 430 198 407T149 341T131 242Q131 187 148 145T197 80T271 56ZM175 587Q154 587 140 601T125 637Q125 658 139 672T175 687Q196 687 210 673T224 637Q224 616 210 602T175 587ZM367 587Q346 587 332 601T318 637Q318 658 332 672T367 687Q389 687 403 673T417
637Q417 616 403 602T367 587Z" />
<glyph unicode="&#xf7;" horiz-adv-x="497" d="M34 299V361H463V299H34ZM249 96Q226 96 210 111T194 150Q194 173 210 188T249 203Q272 203 287 188T303 150Q303 126 288 111T249 96ZM249 456Q226 456 210 471T194 510Q194 533 210 548T249 563Q272 563 287 548T303
510Q303 486 288 471T249 456Z" />
<glyph unicode="&#xf8;" horiz-adv-x="542" d="M272 -12Q212 -12 160 18T77 104T45 242Q45 324 76 381T159 468T271 498Q331 498 382 468T466 381T498 242Q498 161 466 105T383 18T272 -12ZM272 54Q313 54 345 77T396 142T415 238Q415 298 397 342T346 409T271
433Q229 433 197 409T147 344T128 247Q128 187 146 144T197 77T272 54ZM86 -29L40 9L457 515L503 476L86 -29Z" />
<glyph unicode="&#xf9;" horiz-adv-x="544" d="M224 -12Q147 -12 112 36T76 178V486H158V189Q158 121 179 91T249 60Q286 60 315 79T380 141V486H462V0H394L387 76H384Q351 36 313 12T224 -12ZM282 570L124 726L129 735H219L348 570H282Z" />
<glyph unicode="&#xfa;" horiz-adv-x="544" d="M224 -12Q147 -12 112 36T76 178V486H158V189Q158 121 179 91T249 60Q286 60 315 79T380 141V486H462V0H394L387 76H384Q351 36 313 12T224 -12ZM194 570L323 735H413L418 726L260 570H194Z" />
<glyph unicode="&#xfb;" horiz-adv-x="544" d="M224 -12Q147 -12 112 36T76 178V486H158V189Q158 121 179 91T249 60Q286 60 315 79T380 141V486H462V0H394L387 76H384Q351 36 313 12T224 -12ZM99 570L235 735H307L443 570H376L273 673H269L166 570H99Z" />
<glyph unicode="&#xfc;" horiz-adv-x="544" d="M224 -12Q147 -12 112 36T76 178V486H158V189Q158 121 179 91T249 60Q286 60 315 79T380 141V486H462V0H394L387 76H384Q351 36 313 12T224 -12ZM175 587Q154 587 140 601T125 637Q125 658 139 672T175 687Q196 687
210 673T224 637Q224 616 210 602T175 587ZM367 587Q346 587 332 601T318 637Q318 658 332 672T367 687Q389 687 403 673T417 637Q417 616 403 602T367 587Z" />
<glyph unicode="&#xfd;" horiz-adv-x="467" d="M90 -209Q74 -209 60 -206T33 -199L51 -135Q60 -138 69 -139T86 -141Q128 -141 154 -112T196 -37L207 -1L12 486H97L196 217Q208 186 220 150T243 80H247Q258 114 268 149T288 217L375 486H455L272 -40Q255 -88 231
-126T173 -187T90 -209ZM164 570L293 735H383L388 726L230 570H164Z" />
<glyph unicode="&#xfe;" horiz-adv-x="555" d="M82 -205V712H164V519L163 435Q195 461 233 479T311 498Q375 498 418 468T484 382T507 250Q507 168 478 109T400 19T297 -12Q262 -12 229 2T163 42L164 -41V-205H82ZM283 57Q323 57 354 80T404 146T422 250Q422 303
409 343T368 406T294 429Q264 429 232 413T164 363V108Q198 80 228 69T283 57Z" />
<glyph unicode="&#xff;" horiz-adv-x="467" d="M90 -209Q74 -209 60 -206T33 -199L51 -135Q60 -138 69 -139T86 -141Q128 -141 154 -112T196 -37L207 -1L12 486H97L196 217Q208 186 220 150T243 80H247Q258 114 268 149T288 217L375 486H455L272 -40Q255 -88 231
-126T173 -187T90 -209ZM145 587Q124 587 110 601T95 637Q95 658 109 672T145 687Q166 687 180 673T194 637Q194 616 180 602T145 587ZM337 587Q316 587 302 601T288 637Q288 658 302 672T337 687Q359 687 373 673T387 637Q387 616 373 602T337 587Z" />
<glyph unicode="&#x2013;" horiz-adv-x="480" d="M41 223V280H439V223H41Z" />
<glyph unicode="&#x2014;" horiz-adv-x="800" d="M41 223V280H759V223H41Z" />
<glyph unicode="&#x2018;" horiz-adv-x="249" d="M120 435Q90 435 74 459T57 526Q57 585 84 629T163 703L187 664Q149 640 130 611T111 539L123 473L81 524Q91 533 99 537T120 541Q140 541 156 528T173 491Q173 465 158 450T120 435Z" />
<glyph unicode="&#x2019;" horiz-adv-x="249" d="M86 431L63 469Q101 494 119 523T138 595L127 661L168 610Q159 601 151 597T130 593Q109 593 93 606T77 643Q77 669 92 684T130 699Q160 699 176 676T193 608Q193 548 166 505T86 431Z" />
<glyph unicode="&#x201a;" horiz-adv-x="249" d="M86 -145L63 -107Q101 -82 119 -53T138 19L127 85L168 34Q159 25 151 21T130 17Q109 17 93 30T77 67Q77 93 92 108T130 123Q160 123 176 100T193 32Q193 -28 166 -71T86 -145Z" />
<glyph unicode="&#x201c;" horiz-adv-x="426" d="M120 435Q90 435 74 459T57 526Q57 585 84 629T163 703L187 664Q149 640 130 611T111 539L123 473L81 524Q91 533 99 537T120 541Q140 541 156 528T173 491Q173 465 158 450T120 435ZM297 435Q267 435 251 459T234
526Q234 585 261 629T340 703L364 664Q326 640 307 611T288 539L300 473L258 524Q268 533 276 537T297 541Q317 541 333 528T350 491Q350 465 335 450T297 435Z" />
<glyph unicode="&#x201d;" horiz-adv-x="426" d="M86 431L63 469Q101 494 119 523T138 595L127 661L168 610Q159 601 151 597T130 593Q109 593 93 606T77 643Q77 669 92 684T130 699Q160 699 176 676T193 608Q193 548 166 505T86 431ZM263 431L240 469Q278 494
296 523T315 595L304 661L345 610Q336 601 328 597T307 593Q286 593 270 606T254 643Q254 669 269 684T307 699Q337 699 353 676T370 608Q370 548 343 505T263 431Z" />
<glyph unicode="&#x201e;" horiz-adv-x="426" d="M86 -145L63 -107Q101 -82 119 -53T138 19L127 85L168 34Q159 25 151 21T130 17Q109 17 93 30T77 67Q77 93 92 108T130 123Q160 123 176 100T193 32Q193 -28 166 -71T86 -145ZM263 -145L240 -107Q278 -82 296 -53T315
19L304 85L345 34Q336 25 328 21T307 17Q286 17 270 30T254 67Q254 93 269 108T307 123Q337 123 353 100T370 32Q370 -28 343 -71T263 -145Z" />
<glyph unicode="&#x2022;" horiz-adv-x="304" d="M152 143Q122 143 97 158T56 200T40 263Q40 299 55 326T96 368T152 384Q182 384 207 369T248 326T264 263Q264 227 249 200T208 158T152 143Z" />
<glyph unicode="&#x2039;" horiz-adv-x="271" d="M181 66L45 221V283L181 438L217 408L99 252L217 94L181 66Z" />
<glyph unicode="&#x203a;" horiz-adv-x="271" d="M89 66L54 94L172 252L54 408L89 438L226 283V221L89 66Z" />
</font>
</defs>
</svg>
